House Hunters International - From the Beach to Barcelona (2018)

Posted By: Tavaz
SD / WEB-DL IMDb
House Hunters International - From the Beach to Barcelona (2018)

House Hunters International - From the Beach to Barcelona (2018)
WEB-DL | MOV | 968x544 | H264 @ 1605 kbps | AAC @ 96 kbps | 21 min 30 s | 263 MiB
Genre: Reality-TV

Like it's sister show, House Hunters, but focusing on destinations outside of the United States.

House.Hunters.International.04.19.2018.From.the Beach.to.Barcelona.WEB-DL.x264-JIVE.mp4 (263.2 MB)



General
Complete name : ./House.Hunters.International.04.19.2018.From.the Beach.to.Barcelona.WEB-DL.x264-JIVE.mp4
Format : MPEG-4
Format profile : Base Media
Codec ID : isom (isom/iso2/avc1/mp41)
File size : 263 MiB
Duration : 21 min 30 s
Overall bit rate : 1 711 kb/s
Writing application : Lavf56.1.100

Video
ID : 1
Format : AVC
Format/Info : Advanced Video Codec
Format profile : High@L3.1
Format settings : CABAC / 1 Ref Frames
Format settings, CABAC : Yes
Format settings, RefFrames : 1 frame
Format settings, GOP : M=1, N=90
Codec ID : avc1
Codec ID/Info : Advanced Video Coding
Duration : 21 min 30 s
Bit rate : 1 606 kb/s
Width : 968 pixels
Height : 544 pixels
Display aspect ratio : 16:9
Frame rate mode : Variable
Frame rate : 29.970 (29970/1000) FPS
Minimum frame rate : 26.738 FPS
Maximum frame rate : 30.303 FPS
Color space : YUV
Chroma subsampling : 4:2:0
Bit depth : 8 bits
Scan type : Progressive
Bits/(Pixel*Frame) : 0.102
Stream size : 247 MiB (94%)

Audio
ID : 2
Format : AAC
Format/Info : Advanced Audio Codec
Format profile : LC
Codec ID : mp4a-40-2
Duration : 21 min 30 s
Bit rate mode : Constant
Bit rate : 96.0 kb/s
Channel(s) : 2 channels
Channel positions : Front: L R
Sampling rate : 44.1 kHz
Frame rate : 43.066 FPS (1024 SPF)
Compression mode : Lossy
Stream size : 14.8 MiB (6%)
Default : Yes
Alternate group : 1

Text
ID : 1-CC1
Format : EIA-608
Muxing mode : SCTE 128 / DTVCC Transport
Muxing mode, more info : Muxed in Video #1
Duration : 21 min 30 s
Bit rate mode : Constant
Stream size : 0.00 Byte (0%)
Encoded stream size : 0.00 Byte (0%)
CaptionServiceName : CC1





House Hunters International - From the Beach to Barcelona (2018)


House Hunters International - From the Beach to Barcelona (2018)


House Hunters International - From the Beach to Barcelona (2018)


House Hunters International - From the Beach to Barcelona (2018)


House Hunters International - From the Beach to Barcelona (2018)