House of 1000 Corpses (2003)

Posted By: Tavaz
720p (HD) / BDRip IMDb
House of 1000 Corpses (2003)

House of 1000 Corpses (2003)
BDRip | MKV | 1280x720 | English | H264 @ 5527 kbps | DTS @ 1509 kbps | 1 h 28 min | 4.37 GiB
Genre: Horror

Two teenage couples traveling across the backwoods of Texas searching for urban legends of serial killers end up as prisoners of a bizarre and sadistic backwater family of serial killers.

House.of.1000.Corpses.720p.BluRay.x264-HALCYON.mkv (4.4 GB)



General
Unique ID : 186077334045304035144262743923763846070 (0x8BFD30E2D144F1628D813B75F2F61BB6)
Complete name : ./House.of.1000.Corpses.720p.BluRay.x264-HALCYON.mkv
Format : Matroska
Format version : Version 1
File size : 4.37 GiB
Duration : 1 h 28 min
Overall bit rate : 7 039 kb/s
Encoded date : UTC 2007-09-30 07:12:46
Writing application : mkvmerge v2.0.2 ('You're My Flame') built on Feb 21 2007 23:40:55
Writing library : libebml v0.7.7 + libmatroska v0.8.1

Video
ID : 1
Format : AVC
Format/Info : Advanced Video Codec
Format profile : High@L5.1
Format settings : CABAC / 8 Ref Frames
Format settings, CABAC : Yes
Format settings, RefFrames : 8 frames
Codec ID : V_MPEG4/ISO/AVC
Duration : 1 h 28 min
Bit rate : 5 527 kb/s
Width : 1 280 pixels
Height : 720 pixels
Display aspect ratio : 16:9
Frame rate mode : Constant
Frame rate : 23.976 FPS
Color space : YUV
Chroma subsampling : 4:2:0
Bit depth : 8 bits
Scan type : Progressive
Bits/(Pixel*Frame) : 0.250
Stream size : 3.35 GiB (77%)
Writing library : x264 core 56 svn-680
Encoding settings : cabac=1 / ref=5 / deblock=1:-1:-1 / analyse=0x3:0x133 / me=umh / subme=6 / brdo=1 / mixed_ref=1 / me_range=16 / chroma_me=1 / trellis=1 / 8x8dct=1 / cqm=0 / deadzone=21,11 / chroma_qp_offset=0 / threads=6 / nr=0 / decimate=1 / mbaff=0 / bframes=3 / b_pyramid=1 / b_adapt=1 / b_bias=0 / direct=3 / wpredb=1 / bime=1 / keyint=240 / keyint_min=24 / scenecut=40(pre) / rc=2pass / bitrate=5527 / ratetol=1.0 / rceq='blurCplx^(1-qComp)' / qcomp=0.60 / qpmin=10 / qpmax=51 / qpstep=4 / cplxblur=20.0 / qblur=0.5 / ip_ratio=1.40 / pb_ratio=1.30
Language : English
Default : Yes
Forced : No

Audio
ID : 2
Format : DTS
Format/Info : Digital Theater Systems
Format profile : ES Matrix / Core
Mode : 16
Format settings, Endianness : Big
Codec ID : A_DTS
Duration : 1 h 28 min
Bit rate mode : Constant
Bit rate : 1 509 kb/s
Channel(s) : 7 channels / 6 channels
Channel positions : Front: L C R, Side: L R, Back: C, LFE / Front: L C R, Side: L R, LFE
Sampling rate : 48.0 kHz
Frame rate : 93.750 FPS (512 SPF)
Bit depth : 24 bits
Compression mode : Lossy
Stream size : 960 MiB (21%)
Language : English
Default : Yes
Forced : No





House of 1000 Corpses (2003)


House of 1000 Corpses (2003)


House of 1000 Corpses (2003)


House of 1000 Corpses (2003)


House of 1000 Corpses (2003)