House of the Dead 2 (2006)

Posted By: Tavaz
1080p (FullHD) / WEB-DL IMDb
House of the Dead 2 (2006)

House of the Dead 2 (2006)
WEB-DL | MKV | 1904x1072 | English | H264 @ 5211 kbps | AC-3 @ 384 kbps | 1 h 35 min | 3.74 GiB
Subtitles: English
Genre: Horror, TV Movie

In Guesta Verde University, the deranged Professor Curien is trying to bring back the dead, killing students for the experiment. There is an outbreak of zombies in the campus, and the government sends a NSA medical research team, formed by Dr. Alexandra Morgan a.k.a. Nightingale and lieutenant Ellis, with a special force leaded by lieutenant Dalton, trying to get the zero sample from the first generation zombie. The team has a very short time to accomplish their mission and leave the place before missiles are sent to destroy the area. However, the place is crowded of hyper sapiens and the group has to fight to survive.

5d14e6673ed64bf18601da795c84520d.mkv (3.7 GB)



General
Unique ID : 28387970518418416713703712075827785048 (0x155B5301EDC2A2F43F88E9015B622D58)
Complete name : ./5d14e6673ed64bf18601da795c84520d.mkv
Format : Matroska
Format version : Version 4 / Version 2
File size : 3.74 GiB
Duration : 1 h 35 min
Overall bit rate : 5 598 kb/s
Movie name : House.of.the.Dead.2.2005.1080p.WEB-DL.DD5.1.H.264-FGT
Encoded date : UTC 2018-02-22 10:42:35
Writing application : mkvmerge v20.0.0 ('I Am The Sun') 64-bit
Writing library : libebml v1.3.5 + libmatroska v1.4.8
Cover : Yes
Attachments : cover_land.jpg / small_cover.jpg / small_cover_land.jpg / cover.jpg

Video
ID : 1
Format : AVC
Format/Info : Advanced Video Codec
Format profile : High@L4
Format settings : CABAC / 4 Ref Frames
Format settings, CABAC : Yes
Format settings, RefFrames : 4 frames
Codec ID : V_MPEG4/ISO/AVC
Duration : 1 h 35 min
Bit rate : 5 211 kb/s
Width : 1 904 pixels
Height : 1 072 pixels
Display aspect ratio : 16:9
Frame rate mode : Constant
Frame rate : 23.976 (23976/1000) FPS
Color space : YUV
Chroma subsampling : 4:2:0
Bit depth : 8 bits
Scan type : Progressive
Bits/(Pixel*Frame) : 0.106
Stream size : 3.48 GiB (93%)
Title : House.of.the.Dead.2.2005.1080p.WEB-DL.DD5.1.H.264-FGT
Language : English
Default : Yes
Forced : No
Color range : Limited
Color primaries : BT.709
Transfer characteristics : BT.709
Matrix coefficients : BT.709

Audio
ID : 2
Format : AC-3
Format/Info : Audio Coding 3
Format settings, Endianness : Big
Codec ID : A_AC3
Duration : 1 h 35 min
Bit rate mode : Constant
Bit rate : 384 kb/s
Channel(s) : 6 channels
Channel positions : Front: L C R, Side: L R, LFE
Sampling rate : 48.0 kHz
Frame rate : 31.250 FPS (1536 SPF)
Bit depth : 16 bits
Compression mode : Lossy
Stream size : 263 MiB (7%)
Title : House.of.the.Dead.2.2005.1080p.WEB-DL.DD5.1.H.264-FGT
Language : English
Service kind : Complete Main
Default : Yes
Forced : No

Text
ID : 3
Format : UTF-8
Codec ID : S_TEXT/UTF8
Codec ID/Info : UTF-8 Plain Text
Duration : 1 h 35 min
Bit rate : 52 b/s
Count of elements : 1206
Stream size : 36.9 KiB (0%)
Language : English
Default : Yes
Forced : No

Menu
00:00:00.000 : en:Chapter 1
00:08:24.000 : en:Chapter 2
00:18:20.000 : en:Chapter 3
00:29:14.000 : en:Chapter 4
00:38:22.000 : en:Chapter 5
00:47:59.000 : en:Chapter 6
00:58:41.000 : en:Chapter 7
01:09:06.000 : en:Chapter 8
01:19:12.000 : en:Chapter 9
01:31:30.000 : en:Chapter 10





House of the Dead 2 (2006)


House of the Dead 2 (2006)


House of the Dead 2 (2006)


House of the Dead 2 (2006)


House of the Dead 2 (2006)