Subcategories

BBC - How Earth Made Us (2010)

Posted By: Tutorial
BBC - How Earth Made Us (2010)

BBC - How Earth Made Us (2010)
BRRip | 720 x 400 | .AVI/XviD @ 1598 Kbps | 5x~59mn | English MP3 192 Kbps, 2 channels | 3.80 GB
Genre: Documentary, Nature

In each episode, geologist Iain Stewart describes how a certain geological force played a determinant part in human history. Culture may render people less dependent on nature, it still interacts with it, and actually increases the importance of such natural resources as minerals and fossil fuels.
Stars: Iain Stewart, Ali Haleyalur
More info: IMDB

also You can look my other last: Nature-posts

General
Complete name : How.Earth.Made.Us.2010.Part1.avi
Format : AVI
Format/Info : Audio Video Interleave
File size : 761 MiB
Duration : 59mn 3s
Overall bit rate : 1 802 Kbps
Movie name : How.Earth.Made.Us.2010.Part1.BRRip.XviD.MP3
Writing application : Lavf56.40.101
Comment : How.Earth.Made.Us.2010.Part1.BRRip.XviD.MP3

Video
ID : 0
Format : MPEG-4 Visual
Format profile : Simple@L5
Format settings, BVOP : No
Format settings, QPel : No
Format settings, GMC : No warppoints
Format settings, Matrix : Default (H.263)
Codec ID : XVID
Codec ID/Hint : XviD
Duration : 59mn 3s
Bit rate : 1 598 Kbps
Width : 720 pixels
Height : 400 pixels
Display aspect ratio : 16:9
Frame rate : 25.000 fps
Color space : YUV
Chroma subsampling : 4:2:0
Bit depth : 8 bits
Scan type : Progressive
Compression mode : Lossy
Bits/(Pixel*Frame) : 0.222
Stream size : 675 MiB (89%)
Title : How.Earth.Made.Us.2010.Part1.BRRip.XviD.MP3-
Writing library : Lavc56.60.100

Audio
ID : 1
Format : MPEG Audio
Format version : Version 1
Format profile : Layer 3
Mode : Joint stereo
Mode extension : MS Stereo
Codec ID : 55
Codec ID/Hint : MP3
Duration : 59mn 3s
Bit rate mode : Constant
Bit rate : 192 Kbps
Channel(s) : 2 channels
Sampling rate : 48.0 KHz
Compression mode : Lossy
Stream size : 81.1 MiB (11%)
Alignment : Aligned on interleaves
Interleave, duration : 24 ms (0.60 video frame)
Interleave, preload duration : 24 ms
Title : How.Earth.Made.Us.2010.Part1.BRRip.XviD.MP3
Writing library : LAME3.99
Screenshots

BBC - How Earth Made Us (2010)

BBC - How Earth Made Us (2010)

BBC - How Earth Made Us (2010)

BBC - How Earth Made Us (2010)

Welcome to my blog - daily update!

BBC - How Earth Made Us (2010)