Subcategories

Howard Goodall's - Story of Music (2013)

Posted By: Polik88
Howard Goodall's - Story of Music (2013)

Howard Goodall's - Story of Music (2013)
English | MP4 | 640x360 | AVC 700 Kbps 25.000 fps | AAC 96.0 Kbps 48.0 khz | 2x58mn | 2x337 MB
Genre: Documentary

The Story of Music - Howard Goodall charts the development of the oldest music that has come down to us from the ancient world intact, the 'Gregorian' chant. It started with a handful of monks singing the same tune in unison, without rhythm, without harmony. Over several centuries, with developments coming at a snail's pace, medieval musicians painstakingly put together the basics of what we now call harmony and added rhythm. These are the building blocks of the music the whole planet enjoys today.The arrival of a workable form of musical notation, around 1000 AD, gave music another shot in the arm. Now harmony could become ever more sophisticated. Not one, or two, but many voices. In Europe, at this point in history, music was something rarely heard outside church. Then, thanks in part to the development of more sophisticated musical instruments, folk music went from strength to strength. By 1600, secular music rivaled sacred music as the dominant form.By the time Monteverdi wrote the first successful opera, in 1607, most of the kit of musical parts we still have today had been developed and honed - a process that took a thousand years. In Monteverdi's hands, using all the techniques then developed, music could express complex, conflicting, and even combustible political emotions.
General
Complete name : Howard Goodall's Story of Music (2013)\Howard Goodall's Story of Music.E01.The.Age.of.Invention.mp4
Format : MPEG-4
Format profile : Base Media
Codec ID : isom
File size : 337 MiB
Duration : 58mn 58s
Overall bit rate mode : Constant
Overall bit rate : 799 Kbps


Video
ID : 1
Format : AVC
Format/Info : Advanced Video Codec
Format profile : Main@L3.0
Format settings, CABAC : Yes
Format settings, ReFrames : 4 frames
Codec ID : avc1
Codec ID/Info : Advanced Video Coding
Duration : 58mn 58s
Bit rate mode : Constant
Bit rate : 700 Kbps
Width : 640 pixels
Height : 360 pixels
Display aspect ratio : 16:9
Frame rate mode : Constant
Frame rate : 25.000 fps
Standard : PAL
Color space : YUV
Chroma subsampling : 4:2:0
Bit depth : 8 bits
Scan type : Progressive
Bits/(Pixel*Frame) : 0.122
Stream size : 294 MiB (87%)

Audio
ID : 2
Format : AAC
Format/Info : Advanced Audio Codec
Format profile : HE-AAC / LC
Codec ID : 40
Duration : 58mn 58s
Bit rate mode : Constant
Bit rate : 96.0 Kbps
Channel(s) : 2 channels
Channel positions : Front: L R
Sampling rate : 48.0 KHz / 24.0 KHz
Compression mode : Lossy
Stream size : 40.0 MiB (12%)

Screenshots

Howard Goodall's - Story of Music (2013)

Howard Goodall's - Story of Music (2013)

Howard Goodall's - Story of Music (2013)

no mirrors please, Follow The Rules
Visit Polik88 Blog Here
no password