Tags
Language
Tags

Hurricane Smith (1992)

Posted By: Tavaz
Hurricane Smith (1992)

Hurricane Smith (1992)
MKV | 1920x1080 | Portuguese / English / German | H264 @ 8672 kbps | AC-3 @ 192 kbps | 1 h 25 min | 5.67 GiB
Subtitles: English
Genre: Action, Drama

An oil-field worker from Texas journeys to Australia to look for his missing sister, and his search winds up getting him involved with a violent drug-smuggling gang.

Hurricane.Smith.1992.WEB-DL1080p.MemoriadaTV.Maior.mkv (5.7 GB)



General
Unique ID : 280586600454831089899177177375354929546 (0xD317037A0AFED0864921175CA110418A)
Complete name : ./Hurricane.Smith.1992.WEB-DL1080p.MemoriadaTV.Maior.mkv
Format : Matroska
Format version : Version 4 / Version 2
File size : 5.67 GiB
Duration : 1 h 25 min
Overall bit rate mode : Variable
Overall bit rate : 9 443 kb/s
Movie name : –->>> MEMORIADATV.COM
Encoded date : UTC 2018-06-02 03:09:28
Writing application : mkvmerge v23.0.0 ('The Bride Said No') 64-bit
Writing library : libebml v1.3.6 + libmatroska v1.4.9
Cover : Yes
Attachments : cover.jpg

Video
ID : 1
Format : AVC
Format/Info : Advanced Video Codec
Format profile : High@L4
Format settings : CABAC / 2 Ref Frames
Format settings, CABAC : Yes
Format settings, RefFrames : 2 frames
Codec ID : V_MPEG4/ISO/AVC
Duration : 1 h 25 min
Bit rate mode : Variable
Bit rate : 8 672 kb/s
Maximum bit rate : 10 000 kb/s
Width : 1 920 pixels
Height : 1 080 pixels
Display aspect ratio : 16:9
Frame rate mode : Constant
Frame rate : 23.976 (24000/1001) FPS
Color space : YUV
Chroma subsampling : 4:2:0
Bit depth : 8 bits
Scan type : Progressive
Bits/(Pixel*Frame) : 0.174
Stream size : 5.20 GiB (92%)
Default : Yes
Forced : No

Audio #1
ID : 2
Format : AC-3
Format/Info : Audio Coding 3
Format settings, Endianness : Big
Codec ID : A_AC3
Duration : 1 h 25 min
Bit rate mode : Constant
Bit rate : 192 kb/s
Channel(s) : 2 channels
Channel positions : Front: L R
Sampling rate : 48.0 kHz
Frame rate : 31.250 FPS (1536 SPF)
Bit depth : 16 bits
Compression mode : Lossy
Stream size : 118 MiB (2%)
Title : Dublagem Clássica - Herbert Richers / WWW.MEMORIADATV.COM
Language : Portuguese
Service kind : Complete Main
Default : Yes
Forced : No

Audio #2
ID : 3
Format : AC-3
Format/Info : Audio Coding 3
Mode : Dolby Digital
Format settings, Endianness : Big
Codec ID : A_AC3
Duration : 1 h 25 min
Bit rate mode : Constant
Bit rate : 192 kb/s
Channel(s) : 2 channels
Channel positions : Front: L R
Sampling rate : 48.0 kHz
Frame rate : 31.250 FPS (1536 SPF)
Bit depth : 16 bits
Compression mode : Lossy
Stream size : 118 MiB (2%)
Title : DD 2.0 Stereo
Language : English
Service kind : Complete Main
Default : No
Forced : No

Audio #3
ID : 4
Format : AC-3
Format/Info : Audio Coding 3
Format settings, Endianness : Big
Codec ID : A_AC3
Duration : 1 h 25 min
Bit rate mode : Constant
Bit rate : 384 kb/s
Channel(s) : 2 channels
Channel positions : Front: L R
Sampling rate : 48.0 kHz
Frame rate : 31.250 FPS (1536 SPF)
Bit depth : 16 bits
Compression mode : Lossy
Stream size : 236 MiB (4%)
Title : DD 2.0 Stereo
Language : German
Service kind : Complete Main
Default : No
Forced : No

Text
ID : 5
Format : UTF-8
Codec ID : S_TEXT/UTF8
Codec ID/Info : UTF-8 Plain Text
Duration : 1 h 21 min
Bit rate : 46 b/s
Count of elements : 1124
Stream size : 27.8 KiB (0%)
Title : full Subs
Language : English
Default : No
Forced : No

Menu
00:00:00.000 : en:Chapter 1
00:08:29.000 : en:Chapter 2
00:18:24.000 : en:Chapter 3
00:29:43.000 : en:Chapter 4
00:37:48.000 : en:Chapter 5
00:48:16.000 : en:Chapter 6
00:57:05.000 : en:Chapter 7
01:05:00.000 : en:Chapter 8
01:13:31.000 : en:Chapter 9
01:22:14.000 : en:Chapter 10





Hurricane Smith (1992)


Hurricane Smith (1992)


Hurricane Smith (1992)


Hurricane Smith (1992)


Hurricane Smith (1992)