I Got the Hook Up 2 (2019)

Posted By: Tavaz
1080p (FullHD) / BDRip IMDb
I Got the Hook Up 2 (2019)

I Got the Hook Up 2 (2019)
BDRip | MKV | 1920x1080 | English | H264 @ 5760 kbps | AC-3 @ 448 kbps | 1 h 51 min | 4.84 GiB
Subtitles: English
Genre: Comedy

After best friends Black and Blue's restaurant is shut down, Black needs to find some cash – fast. He thinks his luck has turned when Blue's son, Fatboy, and his best friend, Spyda,, bring him a stash of stolen cellphones, and Black decides to sell them on the streets. There's only one problem: The boxes with the phones also contain the Colombian cartel's stash of Molly, which Spyda decides to sell.

9d60c8e33e304f56bfe0a00d9b57286e.mkv (4.8 GB)



General
Unique ID : 133775420664389628663032185797157833356 (0x64A4357710ECC4FD39AE6372E7E3CA8C)
Complete name : ./9d60c8e33e304f56bfe0a00d9b57286e.mkv
Format : Matroska
Format version : Version 4 / Version 2
File size : 4.84 GiB
Duration : 1 h 51 min
Overall bit rate : 6 206 kb/s
Movie name : I.Got.the.Hook.Up.2.2019.1080p.BluRay.x264-nikt0
Encoded date : UTC 2019-09-18 02:58:35 / UTC 2019-09-17T09:21:09Z
Writing application : mkvmerge v35.0.0 ('All The Love In The World') 64-bit
Writing library : libebml v1.3.9 + libmatroska v1.5.2 / Lavf57.7.2

Video
ID : 1
Format : AVC
Format/Info : Advanced Video Codec
Format profile : High@L4
Format settings : CABAC / 4 Ref Frames
Format settings, CABAC : Yes
Format settings, RefFrames : 4 frames
Codec ID : V_MPEG4/ISO/AVC
Duration : 1 h 51 min
Bit rate : 5 760 kb/s
Width : 1 920 pixels
Height : 1 080 pixels
Display aspect ratio : 16:9
Frame rate mode : Constant
Frame rate : 23.976 (24000/1001) FPS
Color space : YUV
Chroma subsampling : 4:2:0
Bit depth : 8 bits
Scan type : Progressive
Bits/(Pixel*Frame) : 0.116
Stream size : 4.40 GiB (91%)
Writing library : x264 core 155 r2901 7d0ff22
Encoding settings : cabac=1 / ref=4 / deblock=1:-3:-3 / analyse=0x3:0x133 / me=umh / subme=9 / psy=1 / psy_rd=1.10:0.25 / mixed_ref=1 / me_range=32 / chroma_me=1 / trellis=2 / 8x8dct=1 / cqm=0 / deadzone=6,6 / fast_pskip=1 / chroma_qp_offset=-4 / threads=24 / lookahead_threads=2 / sliced_threads=0 / nr=0 / decimate=1 / interlaced=0 / bluray_compat=0 / constrained_intra=0 / bframes=6 / b_pyramid=2 / b_adapt=2 / b_bias=0 / direct=3 / weightb=1 / open_gop=0 / weightp=2 / keyint=240 / keyint_min=24 / scenecut=40 / intra_refresh=0 / rc_lookahead=40 / rc=2pass / mbtree=1 / bitrate=5760 / ratetol=1.0 / qcomp=0.60 / qpmin=0 / qpmax=69 / qpstep=4 / cplxblur=20.0 / qblur=0.5 / vbv_maxrate=20000 / vbv_bufsize=25000 / nal_hrd=none / filler=0 / ip_ratio=1.40 / aq=1:1.00
Default : Yes
Forced : No
Color range : Limited
Color primaries : BT.709
Transfer characteristics : BT.709
Matrix coefficients : BT.709
Statistics Tags Issue : mkvmerge v35.0.0 ('All The Love In The World') 64-bit 2019-09-18 02:58:35 / mkvmerge v35.0.0 ('All The Love In The World') 64-bit 2019-09-18 02:58:35 / UTC 2019-09-17T09:21:09Z
FromStats_BitRate : 5756221
FromStats_Duration : 01:51:44.448000000
FromStats_FrameCount : 160746
FromStats_StreamSize : 4824035849

Audio
ID : 2
Format : AC-3
Format/Info : Audio Coding 3
Format settings, Endianness : Big
Codec ID : A_AC3
Duration : 1 h 51 min
Bit rate mode : Constant
Bit rate : 448 kb/s
Channel(s) : 6 channels
Channel positions : Front: L C R, Side: L R, LFE
Sampling rate : 48.0 kHz
Frame rate : 31.250 FPS (1536 SPF)
Bit depth : 16 bits
Compression mode : Lossy
Stream size : 358 MiB (7%)
Title : Surround
Language : English
Service kind : Complete Main
Default : Yes
Forced : No
Statistics Tags Issue : mkvmerge v35.0.0 ('All The Love In The World') 64-bit 2019-09-18 02:58:35 / mkvmerge v35.0.0 ('All The Love In The World') 64-bit 2019-09-18 02:58:35 / UTC 2019-09-17T09:21:09Z
FromStats_BitRate : 448000
FromStats_Duration : 01:51:43.424000000
FromStats_FrameCount : 209482
FromStats_StreamSize : 375391744

Text
ID : 3
Format : UTF-8
Codec ID : S_TEXT/UTF8
Codec ID/Info : UTF-8 Plain Text
Language : English
Default : Yes
Forced : No
Statistics Tags Issue : mkvmerge v35.0.0 ('All The Love In The World') 64-bit 2019-09-18 02:58:35 / mkvmerge v35.0.0 ('All The Love In The World') 64-bit 2019-09-18 02:58:35 / UTC 2019-09-17T09:21:09Z
FromStats_BitRate : 109
FromStats_Duration : 01:51:19.840000000
FromStats_FrameCount : 2846
FromStats_StreamSize : 91088

Menu
00:00:00.000 : :Chapter 1
00:12:51.938 : :Chapter 2
00:21:33.083 : :Chapter 3
00:31:13.997 : :Chapter 4
00:45:47.036 : :Chapter 5
01:10:26.264 : :Chapter 6
01:21:29.593 : :Chapter 7
01:36:48.469 : :Chapter 8





I Got the Hook Up 2 (2019)


I Got the Hook Up 2 (2019)


I Got the Hook Up 2 (2019)


I Got the Hook Up 2 (2019)


I Got the Hook Up 2 (2019)