Phase 4 Films - Iceberg Slim: Portrait of a Pimp (2013)

Posted By: notbanned
Phase 4 Films - Iceberg Slim: Portrait of a Pimp (2013)

Phase 4 Films - Iceberg Slim: Portrait of a Pimp (2013)
HDTV | 1280x720 | .MP4/AVC @ 2000 Kbps | 1h 28min | 1.32 GiB
Audio: English AAC 160 kbps, 2 channels | Subs: None
Genre: Documentary

Iceberg Slim: Portrait of a Pimp Examines the tumultuous life of legendary Chicago pimp Iceberg Slim (1918-1992) and how he reinvented himself from pimp to author of 7 groundbreaking books. These books were the birth of Street Lit and explored the world of the ghetto in gritty and poetic detail and have made him a cultural icon. Interviews with Iceberg Slim, Chris Rock, Henry Rollins, Ice-T, Snoop Dogg, and Quincy Jones.


General
Complete name : Iceberg.Slim.Portrait.of.a.Pimp.720p.mp4
Format : MPEG-4
Format profile : Base Media
Codec ID : isom (isom)
File size : 1.32 GiB
Duration : 1 h 28 min
Overall bit rate mode : Variable
Overall bit rate : 2 139 kb/s

Video
ID : 1
Format : AVC
Format/Info : Advanced Video Codec
Format profile : High@L4.1
Format settings, CABAC : Yes
Format settings, ReFrames : 4 frames
Codec ID : avc1
Codec ID/Info : Advanced Video Coding
Duration : 1 h 28 min
Bit rate : 2 000 kb/s
Maximum bit rate : 12.4 Mb/s
Width : 1 280 pixels
Height : 720 pixels
Display aspect ratio : 16:9
Frame rate mode : Variable
Frame rate : 23.976 (24000/1001) FPS
Minimum frame rate : 23.810 FPS
Maximum frame rate : 24.390 FPS
Color space : YUV
Chroma subsampling : 4:2:0
Bit depth : 8 bits
Scan type : Progressive
Bits/(Pixel*Frame) : 0.091
Stream size : 1.22 GiB (92%)
Encoding settings : cabac=1 / ref=1 / deblock=1:0:0 / analyse=0x3:0x113 / me=hex / subme=2 / psy=1 / psy_rd=1.00:0.00 / mixed_ref=0 / me_range=16 / chroma_me=1 / trellis=0 / 8x8dct=1 / cqm=0 / deadzone=21,11 / fast_pskip=1 / chroma_qp_offset=0 / threads=3 / lookahead_threads=1 / sliced_threads=0 / nr=0 / decimate=1 / interlaced=0 / bluray_compat=0 / constrained_intra=0 / bframes=3 / b_pyramid=2 / b_adapt=1 / b_bias=0 / direct=1 / weightb=1 / open_gop=0 / weightp=1 / keyint=240 / keyint_min=24 / scenecut=40 / intra_refresh=0 / rc_lookahead=10 / rc=abr / mbtree=1 / bitrate=2000 / ratetol=1.0 / qcomp=0.60 / qpmin=0 / qpmax=69 / qpstep=4 / vbv_maxrate=62500 / vbv_bufsize=78125 / nal_hrd=none / ip_ratio=1.40 / aq=1:1.00
Encoded date : UTC 2014-04-30 20:40:48
Tagged date : UTC 2014-04-30 22:26:43
Color range : Limited
Color primaries : BT.709
Transfer characteristics : BT.709
Matrix coefficients : BT.709

Audio
ID : 2
Format : AAC
Format/Info : Advanced Audio Codec
Format profile : LC
Codec ID : 40
Duration : 1 h 28 min
Bit rate mode : Variable
Bit rate : 160 kb/s
Maximum bit rate : 317 kb/s
Channel(s) : 2 channels
Channel positions : Front: L R
Sampling rate : 48.0 kHz
Frame rate : 46.875 FPS (1024 spf)
Compression mode : Lossy
Stream size : 101 MiB (7%)
Encoded date : UTC 2014-04-30 22:26:37
Tagged date : UTC 2014-04-30 22:26:43


Screenshots:

Phase 4 Films - Iceberg Slim: Portrait of a Pimp (2013)

Phase 4 Films - Iceberg Slim: Portrait of a Pimp (2013)

Phase 4 Films - Iceberg Slim: Portrait of a Pimp (2013)

Phase 4 Films - Iceberg Slim: Portrait of a Pimp (2013)