Subcategories

Il club (2015)

Posted By: JohnSmith
Il club (2015)

Il club / El club (2015)
BDRip | MKV / XviD@1903 kb/s | 720x304 | 1h 37mn | 1.63 GB
Italian: AC3, 448 kb/s (6 ch) | Subtitles: Italian (forced)
Genre: Drama

Quattro uomini vivono insieme in una casa isolata in una piccola città di mare. Ognuno di loro è stato mandato lì per eliminare i peccati del passato. A vegliare su di loro è il rigoroso occhio di una custode donna ma la loro fragile stabilità viene interrotta dall'arrivo di un quinto uomo, un compagno recentemente caduto in disgrazia che porta con sé quel passato che si erano lasciati alle spalle. Cosa di non poco conto, i cinque uomini sono tutti preti.

IMDB - Nominated for 1 Golden Globe. Another 16 wins & 20 nominations.



General
Unique ID : 180948100668360685475792105571483081824 (0x88215627DC39821B9953CE7F1D875C60)
Complete name : C:\Il.club.2015.BDRip..ITA-DDNCREW.mkv
Format : Matroska
Format version : Version 4 / Version 2
File size : 1.63 GiB
Duration : 1h 37mn
Overall bit rate : 2 399 Kbps
Encoded date : UTC 2016-06-21 19:29:31
Writing application : mkvmerge v8.3.0 ('Over the Horizon') 64bit
Writing library : libebml v1.3.1 + libmatroska v1.4.2
DURATION : 01:15:18.519000000
NUMBER_OF_FRAMES : 32
NUMBER_OF_BYTES : 1151
_STATISTICS_WRITING_APP : mkvmerge v8.3.0 ('Over the Horizon') 64bit
_STATISTICS_WRITING_DATE_UT : 2016-06-21 19:29:31
_STATISTICS_TAGS : BPS DURATION NUMBER_OF_FRAMES NUMBER_OF_BYTES

Video
ID : 1
Format : MPEG-4 Visual
Format profile : Advanced Simple@L5
Format settings, BVOP : 1
Format settings, QPel : No
Format settings, GMC : No warppoints
Format settings, Matrix : Default (H.263)
Codec ID : V_MS/VFW/FOURCC / XVID
Codec ID/Hint : XviD
Duration : 1h 37mn
Bit rate : 1 903 Kbps
Width : 720 pixels
Height : 304 pixels
Display aspect ratio : 2.35:1
Frame rate mode : Constant
Frame rate : 23.976 fps
Color space : YUV
Chroma subsampling : 4:2:0
Bit depth : 8 bits
Scan type : Progressive
Compression mode : Lossy
Bits/(Pixel*Frame) : 0.363
Stream size : 1.29 GiB (79%)
Writing library : XviD 67
Default : Yes
Forced : No

Audio
ID : 2
Format : AC-3
Format/Info : Audio Coding 3
Mode extension : CM (complete main)
Format settings, Endianness : Big
Codec ID : A_AC3
Duration : 1h 37mn
Bit rate mode : Constant
Bit rate : 448 Kbps
Channel(s) : 6 channels
Channel positions : Front: L C R, Side: L R, LFE
Sampling rate : 48.0 KHz
Compression mode : Lossy
Stream size : 311 MiB (19%)
Language : Italian
Default : Yes
Forced : No

Text
ID : 3
Format : UTF-8
Codec ID : S_TEXT/UTF8
Codec ID/Info : UTF-8 Plain Text
Title : Forced
Language : Italian
Default : Yes
Forced : Yes


Screenshots

Il club (2015)

Il club (2015)

Il club (2015)