Infini (2015)

Posted By: NaVi7
Infini (2015)

Infini (2015)
BRRip | AVI / XviD, 711 Kbps | 720x270 | 1h 50mn | 924 MiB | English: AC3, 448 Kbps (6 ch)
BDRip | MKV / AVC, 388 Kbps | 720x270 | 1h 50mn | 401 MiB | English: AAC, 116 Kbps (2 ch)
BDRip 720p | MKV / AVC, 4140 Kbps | 1280x480 | 1h 50mn | 4.36 GB | English: DTS, 1509 Kbps (6 ch)
Genre: Drama | Sci-Fi | Thriller

An elite 'search and rescue' team transport onto an off-world mining-facility to rescue Whit Carmichael, the lone survivor of a biological outbreak.

imdb

General
Complete name : Infini.2015.BRRip.XviD.AC3-RARBG.avi
Format : AVI
Format/Info : Audio Video Interleave
File size : 924 MiB
Duration : 1h 50mn
Overall bit rate : 1 169 Kbps
Writing application : Lavf56.40.101
Writing library : VirtualDub build 35491/release

Video
ID : 0
Format : MPEG-4 Visual
Format profile : Simple@L5
Format settings, BVOP : No
Format settings, QPel : No
Format settings, GMC : No warppoints
Format settings, Matrix : Default (H.263)
Codec ID : XVID
Codec ID/Hint : XviD
Duration : 1h 50mn
Bit rate : 711 Kbps
Width : 720 pixels
Height : 270 pixels
Display aspect ratio : 2.667
Frame rate : 24.000 fps
Color space : YUV
Chroma subsampling : 4:2:0
Bit depth : 8 bits
Scan type : Progressive
Compression mode : Lossy
Bits/(Pixel*Frame) : 0.152
Stream size : 563 MiB (61%)
Writing library : Lavc56.60.100

Audio
ID : 1
Format : AC-3
Format/Info : Audio Coding 3
Mode extension : CM (complete main)
Format settings, Endianness : Big
Codec ID : 2000
Duration : 1h 50mn
Bit rate mode : Constant
Bit rate : 448 Kbps
Channel(s) : 6 channels
Channel positions : Front: L C R, Side: L R, LFE
Sampling rate : 48.0 KHz
Compression mode : Lossy
Stream size : 354 MiB (38%)
Alignment : Aligned on interleaves
Interleave, duration : 42 ms (1.00 video frame)
Interleave, preload duratio : 512 ms

General
Unique ID : 231402766039588455960322508191955273794 (0xAE168D37D173BA989B1A5F04F405C842)
Complete name : infini.2015.limited.bdrip.x264-veto.mkv
Format : Matroska
Format version : Version 4 / Version 2
File size : 401 MiB
Duration : 1h 50mn
Overall bit rate : 507 Kbps
Encoded date : UTC 2015-10-15 16:06:59
Writing application : mkvmerge v8.3.0 ('Over the Horizon') 64bit
Writing library : libebml v1.3.1 + libmatroska v1.4.2

Video
ID : 1
Format : AVC
Format/Info : Advanced Video Codec
Format profile : High@L3.1
Format settings, CABAC : Yes
Format settings, ReFrames : 5 frames
Codec ID : V_MPEG4/ISO/AVC
Duration : 1h 50mn
Width : 720 pixels
Height : 270 pixels
Display aspect ratio : 2.667
Frame rate mode : Constant
Frame rate : 24.000 fps
Color space : YUV
Chroma subsampling : 4:2:0
Bit depth : 8 bits
Scan type : Progressive
Writing library : x264 core 148 r2597 e86f3a1
Encoding settings : cabac=1 / ref=5 / deblock=1:-2:-2 / analyse=0x3:0x133 / me=umh / subme=8 / psy=1 / psy_rd=0.90:0.00 / mixed_ref=1 / me_range=16 / chroma_me=1 / trellis=1 / 8x8dct=1 / cqm=0 / deadzone=21,11 / fast_pskip=0 / chroma_qp_offset=-2 / threads=8 / lookahead_threads=1 / sliced_threads=0 / nr=0 / decimate=1 / interlaced=0 / bluray_compat=0 / constrained_intra=0 / bframes=3 / b_pyramid=2 / b_adapt=2 / b_bias=0 / direct=3 / weightb=1 / open_gop=0 / weightp=2 / keyint=240 / keyint_min=24 / scenecut=40 / intra_refresh=0 / rc_lookahead=50 / rc=crf / mbtree=1 / crf=19.0 / qcomp=0.60 / qpmin=0 / qpmax=69 / qpstep=4 / ip_ratio=1.40 / aq=1:1.00
Language : English
Default : Yes
Forced : No
Color range : Limited
Matrix coefficients : BT.709

Audio
ID : 2
Format : AAC
Format/Info : Advanced Audio Codec
Format profile : LC
Codec ID : A_AAC
Duration : 1h 50mn
Channel(s) : 2 channels
Channel positions : Front: L R
Sampling rate : 48.0 KHz
Compression mode : Lossy
Delay relative to video : 9ms
Language : English
Default : Yes
Forced : No

Menu
00:00:00.000 : en:00:00:00.000
00:05:17.791 : en:00:05:17.791
00:11:39.916 : en:00:11:39.916
00:17:36.833 : en:00:17:36.833
00:23:05.000 : en:00:23:05.000
00:29:12.666 : en:00:29:12.666
00:35:55.875 : en:00:35:55.875
00:41:14.250 : en:00:41:14.250
00:46:42.208 : en:00:46:42.208
00:51:28.333 : en:00:51:28.333
00:58:56.625 : en:00:58:56.625
01:06:46.250 : en:01:06:46.250
01:13:29.625 : en:01:13:29.625
01:20:22.041 : en:01:20:22.041
01:26:37.916 : en:01:26:37.916
01:33:09.000 : en:01:33:09.000
01:39:20.708 : en:01:39:20.708
01:44:54.416 : en:01:44:54.416

General
Unique ID : 238272858279327624272851856332379988915 (0xB341AEEABFCEF9DAB9339C86AA6D23B3)
Complete name : infini.2015.limited.720p.bluray.x264-veto.mkv
Format : Matroska
Format version : Version 4 / Version 2
File size : 4.36 GiB
Duration : 1h 50mn
Overall bit rate : 5 650 Kbps
Encoded date : UTC 2015-10-15 17:50:37
Writing application : mkvmerge v8.3.0 ('Over the Horizon') 64bit
Writing library : libebml v1.3.1 + libmatroska v1.4.2

Video
ID : 1
Format : AVC
Format/Info : Advanced Video Codec
Format profile : High@L4.1
Format settings, CABAC : Yes
Format settings, ReFrames : 5 frames
Codec ID : V_MPEG4/ISO/AVC
Duration : 1h 50mn
Bit rate : 4 140 Kbps
Width : 1 280 pixels
Height : 480 pixels
Display aspect ratio : 2.667
Frame rate mode : Constant
Frame rate : 24.000 fps
Color space : YUV
Chroma subsampling : 4:2:0
Bit depth : 8 bits
Scan type : Progressive
Bits/(Pixel*Frame) : 0.281
Stream size : 3.11 GiB (71%)
Writing library : x264 core 148 r2597 e86f3a1
Encoding settings : cabac=1 / ref=5 / deblock=1:1:1 / analyse=0x3:0x133 / me=umh / subme=8 / psy=1 / psy_rd=1.00:0.00 / mixed_ref=1 / me_range=16 / chroma_me=1 / trellis=1 / 8x8dct=1 / cqm=0 / deadzone=21,11 / fast_pskip=0 / chroma_qp_offset=-2 / threads=15 / lookahead_threads=2 / sliced_threads=0 / nr=0 / decimate=1 / interlaced=0 / bluray_compat=0 / constrained_intra=0 / bframes=3 / b_pyramid=2 / b_adapt=2 / b_bias=0 / direct=3 / weightb=1 / open_gop=0 / weightp=2 / keyint=240 / keyint_min=24 / scenecut=40 / intra_refresh=0 / rc_lookahead=50 / rc=2pass / mbtree=1 / bitrate=4140 / ratetol=1.0 / qcomp=0.60 / qpmin=0 / qpmax=69 / qpstep=4 / cplxblur=20.0 / qblur=0.5 / ip_ratio=1.40 / aq=1:1.00
Language : English
Default : Yes
Forced : No

Audio
ID : 2
Format : DTS
Format/Info : Digital Theater Systems
Mode : 16
Format settings, Endianness : Big
Codec ID : A_DTS
Duration : 1h 50mn
Bit rate mode : Constant
Bit rate : 1 509 Kbps
Channel(s) : 6 channels
Channel positions : Front: L C R, Side: L R, LFE
Sampling rate : 48.0 KHz
Bit depth : 24 bits
Compression mode : Lossy
Stream size : 1.17 GiB (27%)
Language : English
Default : Yes
Forced : No

Menu
00:00:00.000 : en:00:00:00.000
00:05:17.791 : en:00:05:17.791
00:11:39.916 : en:00:11:39.916
00:17:36.833 : en:00:17:36.833
00:23:05.000 : en:00:23:05.000
00:29:12.666 : en:00:29:12.666
00:35:55.875 : en:00:35:55.875
00:41:14.250 : en:00:41:14.250
00:46:42.208 : en:00:46:42.208
00:51:28.333 : en:00:51:28.333
00:58:56.625 : en:00:58:56.625
01:06:46.250 : en:01:06:46.250
01:13:29.625 : en:01:13:29.625
01:20:22.041 : en:01:20:22.041
01:26:37.916 : en:01:26:37.916
01:33:09.000 : en:01:33:09.000
01:39:20.708 : en:01:39:20.708
01:44:54.416 : en:01:44:54.416


screenshots BRRip:

Infini (2015)

Infini (2015)

Infini (2015)


screenshots BDRip:

Infini (2015)

Infini (2015)

Infini (2015)


screenshots BDRip 720p:

Infini (2015)

Infini (2015)

Infini (2015)