Ingrid Bergman in Her Own Words / Jag är Ingrid (2015)

Posted By: Tutorial
720p (HD) / BluRay IMDb
Ingrid Bergman in Her Own Words / Jag är Ingrid (2015)

Ingrid Bergman in Her Own Words / Jag är Ingrid (2015)
720p BluRay | 1280 x 720 | .MKV/AVC @ 5331 Kbps | 1h 54mn | 5.46 GB
Audio: Svenska DTS 1510 Kbps, 6 channels | Subs: English
Genre: Documentary, Biography

A captivating look behind the scenes of the remarkable life of a young Swedish girl who became one of the most celebrated actresses of American and World cinema.

General
Unique ID : 203711473109256083521990599920026415422 (0x994167114B421285931093FDDC18713E)
Complete name : Ingrid.Bergman.720p.mkv
Format : Matroska
Format version : Version 4 / Version 2
File size : 5.46 GiB
Duration : 1h 54mn
Overall bit rate : 6 842 Kbps
Encoded date : UTC 2016-08-06 03:04:46
Writing application : mkvmerge v9.3.1 ('Mask Machine') 64bit
Writing library : libebml v1.3.4 + libmatroska v1.4.5
DURATION : 01:53:19.918000000
NUMBER_OF_FRAMES : 1278
NUMBER_OF_BYTES : 57735
_STATISTICS_WRITING_APP : mkvmerge v9.3.1 ('Mask Machine') 64bit
_STATISTICS_WRITING_DATE_UTC : 2016-08-06 03:04:46
_STATISTICS_TAGS : BPS DURATION NUMBER_OF_FRAMES NUMBER_OF_BYTES

Video
ID : 1
Format : AVC
Format/Info : Advanced Video Codec
Format profile : High@L4.1
Format settings, CABAC : Yes
Format settings, ReFrames : 5 frames
Codec ID : V_MPEG4/ISO/AVC
Duration : 1h 54mn
Bit rate : 5 331 Kbps
Width : 1 280 pixels
Height : 720 pixels
Display aspect ratio : 16:9
Frame rate : 23.976 fps
Color space : YUV
Chroma subsampling : 4:2:0
Bit depth : 8 bits
Scan type : Progressive
Bits/(Pixel*Frame) : 0.241
Stream size : 4.15 GiB (76%)
Writing library : x264 core 148 r2705 3f5ed56
Encoding settings : cabac=1 / ref=5 / deblock=1:-3:-3 / analyse=0x3:0x113 / me=umh / subme=8 / psy=1 / psy_rd=1.00:0.00 / mixed_ref=1 / me_range=16 / chroma_me=1 / trellis=1 / 8x8dct=1 / cqm=0 / deadzone=21,11 / fast_pskip=1 / chroma_qp_offset=-2 / threads=22 / lookahead_threads=3 / sliced_threads=0 / nr=0 / decimate=1 / interlaced=0 / bluray_compat=0 / constrained_intra=0 / bframes=3 / b_pyramid=2 / b_adapt=2 / b_bias=0 / direct=3 / weightb=1 / open_gop=0 / weightp=2 / keyint=240 / keyint_min=24 / scenecut=40 / intra_refresh=0 / rc_lookahead=50 / rc=2pass / mbtree=1 / bitrate=5331 / ratetol=1.0 / qcomp=0.60 / qpmin=0 / qpmax=69 / qpstep=4 / cplxblur=20.0 / qblur=0.5 / ip_ratio=1.40 / aq=1:1.00
Default : Yes
Forced : No
DURATION : 01:54:16.850000000
NUMBER_OF_FRAMES : 164400
NUMBER_OF_BYTES : 4568992811
_STATISTICS_WRITING_APP : mkvmerge v9.3.1 ('Mask Machine') 64bit
_STATISTICS_WRITING_DATE_UTC : 2016-08-06 03:04:46
_STATISTICS_TAGS : BPS DURATION NUMBER_OF_FRAMES NUMBER_OF_BYTES

Audio
ID : 2
Format : DTS
Format/Info : Digital Theater Systems
Codec ID : A_DTS
Duration : 1h 54mn
Bit rate mode : Constant
Bit rate : 1 510 Kbps
Channel(s) : 6 channels
Channel positions : Front: L C R, Side: L R, LFE
Sampling rate : 48.0 KHz
Bit depth : 24 bits
Compression mode : Lossy
Stream size : 1.21 GiB (22%)
Language : Swedish
Default : Yes
Forced : No

Text #1
ID : 3
Format : UTF-8
Codec ID : S_TEXT/UTF8
Codec ID/Info : UTF-8 Plain Text
Title : Forced
Language : English
Default : Yes
Forced : No

Text #2
ID : 4
Format : UTF-8
Codec ID : S_TEXT/UTF8
Codec ID/Info : UTF-8 Plain Text
Title : Regular
Language : English
Default : No
Forced : No

Text #3
ID : 5
Format : UTF-8
Codec ID : S_TEXT/UTF8
Codec ID/Info : UTF-8 Plain Text
Title : SDH
Language : English
Default : No
Forced : No

Menu
00:00:00.000 : en:00:00:00.000
00:06:15.584 : en:00:06:15.584
00:11:49.709 : en:00:11:49.709
00:17:06.651 : en:00:17:06.651
00:21:27.661 : en:00:21:27.661
00:28:32.836 : en:00:28:32.836
00:36:25.767 : en:00:36:25.767
00:40:30.637 : en:00:40:30.637
00:45:01.532 : en:00:45:01.532
00:52:09.835 : en:00:52:09.835
01:06:34.115 : en:01:06:34.115
01:14:06.484 : en:01:14:06.484
01:22:26.483 : en:01:22:26.483
01:31:09.964 : en:01:31:09.964
01:43:40.089 : en:01:43:40.089
Screenshots

Ingrid Bergman in Her Own Words / Jag är Ingrid (2015)

Ingrid Bergman in Her Own Words / Jag är Ingrid (2015)

Ingrid Bergman in Her Own Words / Jag är Ingrid (2015)

Welcome to my blog - daily update!

Ingrid Bergman in Her Own Words / Jag är Ingrid (2015)