CBC - Innovation Nation : Series 3 (2016)

Posted By: notbanned
CBC - Innovation Nation : Series 3 (2016)

CBC - Innovation Nation : Series 3 (2016)
HDTV | 1280x720 | .MP4/AVC @ 2468 Kbps | 12x~20min | 4.50 GiB
Audio: English AAC 160 kbps, 2 channels | Subs: English
Genre: Documentary

Host Mo Rocca shares the dramatic stories of extraordinary investors in hopes of inspiring viewers to open their imaginations and bring their visions to life.
Part 1: Wolves Of Yellowstone
Host Mo Rocca shows us: How returning wolves to Yellowstone National Park changed nature. Vine’s Six Second Spielberg, Zach King. The rivalry between Nikola Tesla and Thomas Edison. And the new Bee Hive that makes the honey flow.

Part 2: Horse Play
Host Mo Rocca shows us: The coolest toy for horses. Teaching the science of gravity with bowling balls. Making plastic from banana peels. And how weaving techniques led to computer programming.

Part 3: Shark Repellant
In this episode, What device is keeping sharks away from swimmers. The video doorbell connected to your smartphone. The history of the DC-3 airliner. And the coating for plastic bottles that gets the last drop.

Part 4: Stone Balance Art
In this episode,The physics involved with the art of Stone Balancing. Farmers saving water with the Tree TeePee. The history of turning the family farm into a business. And the chemistry behind the polymers we use every day.

Part 5: Car Eye Monitor
Host Mo Rocca shows us: The car dashboard that makes sure you’re paying attention. The softest speakers putting you to sleep. The light making your video chats glow. And history’s greatest innovators go camping!?

Part 6: Football Field Lines
Host Mo Rocca shows us: The TV magic behind the first down lines on football telecasts. The App Camp for Girls. The history behind windmill innovations. And putting out fires with sound waves.

Part 7: Baby Tech
Host Mo Rocca shows us: The highest tech to keep tabs on your toddler. Rebuilding the billfold that’s been breaking your backside. The history behind the Lunch Wagon and mobile food. And the Playful Polymers making you jump higher while keeping babies’ bottoms drier.

Part 8: Hover Board
Host Mo Rocca shows us: The innovator who has created a Hover Board. The push to have kids learn computer code in school. The man who brought us Super Bananas to ward off disease. The history of Steam Engines in manufacturing.

Part 9: 3D Printed Clothes
Host Mo Rocca shows us: How you may be able to someday print your clothes. The panic button app giving you protection in the palm of your hand. The history of the Tri-Motor Airplane.

Part 10: Jet Man
Host Mo Rocca shows us: The inventor soaring to new heights with a jet on his back. New innovation putting and end to police chases. The Drinkable Book that filters dirty water. The art and science of restoring museum artifacts.

Part 11: Pendulum Wave
Host Mo Rocca shows us: Teaching the science of gravity with bowling balls. The physics involved with the art of Stone Balancing. The rivalry between Nikola Tesla and Thomas Edison. And the new Bee Hive that makes the honey flow.

Part 12: Nation Tallest Roller Coaster
Host Mo Rocca shows us: The physics behind the tallest roller coaster. Making Make-up at home with the inventor of the 3D Make-up Printer. Historic Arcade and Video Games. And the headlights for your running shoes.


General
Complete name : Innovation.Nation.Series.3.01of12.Wolves.Of.Yellowstone.720p.mp4
Format : MPEG-4
Format profile : Base Media
Codec ID : isom (isom)
File size : 385 MiB
Duration : 20 min 19 s
Overall bit rate mode : Variable
Overall bit rate : 2 648 kb/s

Video
ID : 1
Format : AVC
Format/Info : Advanced Video Codec
Format profile : High@L4.1
Format settings, CABAC : Yes
Format settings, ReFrames : 4 frames
Codec ID : avc1
Codec ID/Info : Advanced Video Coding
Duration : 20 min 19 s
Bit rate : 2 468 kb/s
Maximum bit rate : 7 286 kb/s
Width : 1 280 pixels
Height : 720 pixels
Display aspect ratio : 16:9
Frame rate mode : Variable
Frame rate : 29.970 (29970/1000) FPS
Minimum frame rate : 12.600 FPS
Maximum frame rate : 29.970 FPS
Color space : YUV
Chroma subsampling : 4:2:0
Bit depth : 8 bits
Scan type : Progressive
Bits/(Pixel*Frame) : 0.089
Stream size : 361 MiB (94%)
Encoding settings : cabac=1 / ref=1 / deblock=1:0:0 / analyse=0x3:0x3 / me=dia / subme=1 / psy=1 / psy_rd=1.00:0.00 / mixed_ref=0 / me_range=16 / chroma_me=1 / trellis=0 / 8x8dct=1 / cqm=0 / deadzone=21,11 / fast_pskip=1 / chroma_qp_offset=0 / threads=6 / lookahead_threads=1 / sliced_threads=0 / nr=0 / decimate=1 / interlaced=0 / bluray_compat=0 / constrained_intra=0 / bframes=3 / b_pyramid=2 / b_adapt=1 / b_bias=0 / direct=1 / weightb=1 / open_gop=0 / weightp=1 / keyint=300 / keyint_min=30 / scenecut=40 / intra_refresh=0 / rc_lookahead=0 / rc=abr / mbtree=0 / bitrate=2468 / ratetol=1.0 / qcomp=0.60 / qpmin=0 / qpmax=69 / qpstep=4 / vbv_maxrate=62500 / vbv_bufsize=78125 / nal_hrd=none / ip_ratio=1.40 / pb_ratio=1.30 / aq=1:1.00
Encoded date : UTC 2017-10-15 21:54:32
Tagged date : UTC 2017-10-15 23:40:54
Color range : Limited
Color primaries : BT.709
Transfer characteristics : BT.709
Matrix coefficients : BT.709

Audio
ID : 2
Format : AAC
Format/Info : Advanced Audio Codec
Format profile : LC
Codec ID : 40
Duration : 20 min 19 s
Bit rate mode : Variable
Bit rate : 160 kb/s
Maximum bit rate : 303 kb/s
Channel(s) : 2 channels
Channel positions : Front: L R
Sampling rate : 44.1 kHz
Frame rate : 43.066 FPS (1024 spf)
Compression mode : Lossy
Stream size : 23.3 MiB (6%)
Encoded date : UTC 2017-10-15 23:40:52
Tagged date : UTC 2017-10-15 23:40:54

Text
ID : 3
Format : Timed Text
Codec ID : tx3g
Duration : 20 min 1 s
Bit rate mode : Variable
Bit rate : 120 b/s
Stream size : 17.7 KiB (0%)
Forced : No
Encoded date : UTC 2017-10-15 23:40:54
Tagged date : UTC 2017-10-15 23:40:54


Screenshots:

CBC - Innovation Nation : Series 3 (2016)

CBC - Innovation Nation : Series 3 (2016)

CBC - Innovation Nation : Series 3 (2016)

CBC - Innovation Nation : Series 3 (2016)