Tags
Language
Tags

Invasion of the Body Snatchers (1956)

Posted By: Tavaz
1080p (FullHD) / BDRip IMDb
Invasion of the Body Snatchers (1956)

Invasion of the Body Snatchers (1956)
BDRip | MKV | 1920x960 | English | H265 @ 3022 kbps | AC-3 @ 128 kbps | 1 h 20 min | 1.77 GiB
Genre: Horror, Science Fiction

A small-town doctor learns that the population of his community is being replaced by emotionless alien duplicates.

d6b7321ac62d4aec89c5c6d2325f9ac5.mkv (1.8 GB)



General
Complete name : ./d6b7321ac62d4aec89c5c6d2325f9ac5.mkv
Format : Matroska
Format version : Version 2
File size : 1.77 GiB
Duration : 1 h 20 min
Overall bit rate : 3 152 kb/s
Encoded date : UTC 2018-02-26 01:59:02
Writing application : DVDFab 10.0.8.1
Writing library : libebml v1.3.4 + libmatroska v1.4.5

Video
ID : 1
Format : HEVC
Format/Info : High Efficiency Video Coding
Format profile : Main 10@L4@Main
Codec ID : V_MPEGH/ISO/HEVC
Duration : 1 h 20 min
Bit rate : 3 022 kb/s
Width : 1 920 pixels
Height : 960 pixels
Display aspect ratio : 2.000
Frame rate mode : Constant
Frame rate : 23.976 (24000/1001) FPS
Color space : YUV
Chroma subsampling : 4:2:0
Bit depth : 10 bits
Bits/(Pixel*Frame) : 0.068
Stream size : 1.69 GiB (96%)
Default : Yes
Forced : No
Color range : Limited
Color primaries : BT.709
Transfer characteristics : BT.709
Matrix coefficients : BT.709

Audio
ID : 2
Format : AC-3
Format/Info : Audio Coding 3
Format settings, Endianness : Big
Codec ID : A_AC3
Duration : 1 h 20 min
Bit rate mode : Constant
Bit rate : 128 kb/s
Channel(s) : 1 channel
Channel positions : Front: C
Sampling rate : 48.0 kHz
Frame rate : 31.250 FPS (1536 SPF)
Bit depth : 16 bits
Compression mode : Lossy
Stream size : 73.5 MiB (4%)
Language : English
Service kind : Complete Main
Default : Yes
Forced : No

Menu
00:00:00.000 : en:(01)00:00:00:000
00:05:09.392 : en:(02)00:05:09:392
00:10:35.217 : en:(03)00:10:35:217
00:15:07.656 : en:(04)00:15:07:656
00:24:04.985 : en:(05)00:24:04:985
00:32:06.007 : en:(06)00:32:06:007
00:36:32.356 : en:(07)00:36:32:356
00:42:53.404 : en:(08)00:42:53:404
00:49:40.894 : en:(09)00:49:40:894
00:54:58.003 : en:(10)00:54:58:003
01:06:20.810 : en:(11)01:06:20:810
01:13:57.015 : en:(12)01:13:57:015





Invasion of the Body Snatchers (1956)


Invasion of the Body Snatchers (1956)


Invasion of the Body Snatchers (1956)


Invasion of the Body Snatchers (1956)


Invasion of the Body Snatchers (1956)