Io e lei (2015)

Posted By: JohnSmith
Io e lei (2015)

Io e lei (2015)
DVDRip | AVI / XviD@1430 kb/s | 720x304 | 1h 37mn | 1.25 GB | Italian: AC3, 384 kb/s (6 ch)
Genre: Comedy

Federica (Margherita Buy) e Marina (Sabrina Ferilli) vivono insieme da diversi anni. Vengono da percorsi diversi, hanno caratteri e modi di vita differenti, discutono e si amano discutendo come tutte le coppie del mondo. La loro storia d’amore è a un punto di svolta. Proprio quando Marina pensa che ormai si possano considerare una coppia stabile, Federica mossa da una serie di accadimenti entra in crisi. E comincia a porsi delle domande. Con chi vorrebbe dividere la propria vita? Chi è che ama veramente? E lei, davvero, chi è?




General
Complete name : D:\Io.e.Lei.2015.DVDRip.ITA.DDN.avi
Format : AVI
Format/Info : Audio Video Interleave
File size : 1.25 GiB
Duration : 1h 37mn
Overall bit rate : 1 822 Kbps

Video
ID : 0
Format : MPEG-4 Visual
Format profile : Advanced Simple@L5
Format settings, BVOP : 1
Format settings, QPel : No
Format settings, GMC : No warppoints
Format settings, Matrix : Default (H.263)
Codec ID : XVID
Codec ID/Hint : XviD
Duration : 1h 37mn
Bit rate : 1 430 Kbps
Width : 720 pixels
Height : 304 pixels
Display aspect ratio : 2.35:1
Frame rate : 25.000 fps
Color space : YUV
Chroma subsampling : 4:2:0
Bit depth : 8 bits
Scan type : Progressive
Compression mode : Lossy
Bits/(Pixel*Frame) : 0.261
Stream size : 1 002 MiB (78%)
Writing library : XviD 67

Audio
ID : 1
Format : AC-3
Format/Info : Audio Coding 3
Mode extension : CM (complete main)
Format settings, Endianness : Big
Codec ID : 2000
Duration : 1h 37mn
Bit rate mode : Constant
Bit rate : 384 Kbps
Channel(s) : 6 channels
Channel positions : Front: L C R, Side: L R, LFE
Sampling rate : 48.0 KHz
Compression mode : Lossy
Stream size : 269 MiB (21%)
Alignment : Aligned on interleaves
Interleave, duration : 64 ms (1.60 video frames)
Interleave, preload duratio : 192 ms
Title : VTS_01_1 T80 3_2ch 384Kbps DELAY 0ms


Screenshots

Io e lei (2015)

Io e lei (2015)

Io e lei (2015)