Io e lei (2015)

Posted By: JohnSmith
Io e lei (2015)

Io e lei (2015)
CAMRip | AVi / XviD@1929 kb/s | 720x352 | 1h 34mn | 1.37 GB | Italian: MP3, 128 kb/s (2 ch)
Genre: Comedy

Federica (Margherita Buy) e Marina (Sabrina Ferilli) vivono insieme da diversi anni. Vengono da percorsi diversi, hanno caratteri e modi di vita differenti, discutono e si amano discutendo come tutte le coppie del mondo. La loro storia d’amore è a un punto di svolta. Proprio quando Marina pensa che ormai si possano considerare una coppia stabile, Federica mossa da una serie di accadimenti entra in crisi. E comincia a porsi delle domande. Con chi vorrebbe dividere la propria vita? Chi è che ama veramente? E lei, davvero, chi è?




General
Complete name : D:\1o.3.L3i.2015.iTALiAN.MD.CAM.XviD-iNCOMiNG.avi
Format : AVI
Format/Info : Audio Video Interleave
File size : 1.37 GiB
Duration : 1h 34mn
Overall bit rate : 2 066 Kbps
Writing library : VirtualDub build 35491/release

Video
ID : 0
Format : MPEG-4 Visual
Format profile : Advanced Simple@L5
Format settings, BVOP : 2
Format settings, QPel : No
Format settings, GMC : No warppoints
Format settings, Matrix : Default (H.263)
Codec ID : XVID
Codec ID/Hint : XviD
Duration : 1h 34mn
Bit rate : 1 929 Kbps
Width : 720 pixels
Height : 352 pixels
Display aspect ratio : 2.045
Frame rate : 25.000 fps
Color space : YUV
Chroma subsampling : 4:2:0
Bit depth : 8 bits
Scan type : Progressive
Compression mode : Lossy
Bits/(Pixel*Frame) : 0.304
Stream size : 1.28 GiB (93%)
Writing library : XviD 1.2.1 (UTC 2008-12-04)

Audio
ID : 1
Format : MPEG Audio
Format version : Version 1
Format profile : Layer 3
Codec ID : 55
Codec ID/Hint : MP3
Duration : 1h 34mn
Bit rate mode : Constant
Bit rate : 128 Kbps
Channel(s) : 2 channels
Sampling rate : 48.0 KHz
Compression mode : Lossy
Stream size : 86.7 MiB (6%)
Alignment : Split accross interleaves
Interleave, duration : 40 ms (1.00 video frame)
Interleave, preload duratio : 500 ms
Writing library : LAME3.99r
Encoding settings : -m s -V 4 -q 3 -lowpass 17 -b 128


Screenshots

Io e lei (2015)

Io e lei (2015)

Io e lei (2015)