Iqbal - Bambini senza paura (2015)

Posted By: JohnSmith
Iqbal - Bambini senza paura (2015)

Iqbal - Bambini senza paura (2015)
DVDRip | AVI / XviD@1990 kb/s | 624x352 | 1h 33mn | 1.56 GB | Italian: AC3, 384 kb/s (6 ch)
Genre: Animation | Family

Iqbal, un ragazzino sveglio e vivace di dieci anni, vive con il fratello Aziz e la madre Ashanta a Kardù, un piccolo villaggio in qualche parte povera del mondo. L'epopea di Iqbal comincia il giorno in cui decide di andare al mercato di Mapur per vendere alcuni giocattoli e pietre colorate e recuperare così i soldi necessari per pagare le medicine necessarie a curare il fratello malato. A Mapur, Iqbal incontra Hakeem, che si offre di comprargli le medicine per Aziz: in cambio, però, dovrà lavorare nella fabbrica di tappeti del suo amico Guzman. Per quanto tempo dovrà lavorare? La risposta rimane sospesa. Guzman intuisce presto le doti di Iqbal nel disegno e nel ricamo e lo costringe in un capannone sporco e freddo a lavorare al telaio per preparare un prezioso tappeto, un Bangapur Azzurro. Qui Iqbal incontra i suoi compagni d’avventura: Fatima, Emerson, Maria, Ben, Salman e Karim, bambini di età diverse ma con storie simili, tutte legate alla povertà. Iqbal non può far altro che cominciare a tessere il suo tappeto e pensare a come venirne fuori. Superata qualche diffidenza iniziale, nel gruppo di piccoli lavoranti comincia a farsi strada una coscienza nuova della loro condizione di piccoli schiavi "per sempre". Iqbal, però, non si dà per vinto: una volta resosi conto che il debito non si esaurirà mai malgrado le promesse di Guzman, comincia a elaborare un piano per liberare i suoi piccoli amici e consentire a tutti di tornare a casa.




General
Complete name : A:\Iqbal.Bambini.Senza.Paura.2015.iTALiAN.AC3.DVDRip.XviD-GBM.avi
Format : AVI
Format/Info : Audio Video Interleave
File size : 1.56 GiB
Duration : 1 h 33 min
Overall bit rate : 2 384 kb/s
Writing application : VirtualDubMod 1.5.10.2 (build 2540/release)
Writing library : VirtualDubMod build 2540/release

Video
ID : 0
Format : MPEG-4 Visual
Format profile : Advanced Simple@L5
Format settings, BVOP : 2
Format settings, QPel : Yes
Format settings, GMC : No warppoints
Format settings, Matrix : Default (MPEG)
Codec ID : XVID
Codec ID/Hint : XviD
Duration : 1 h 33 min
Bit rate : 1 990 kb/s
Width : 624 pixels
Height : 352 pixels
Display aspect ratio : 16:9
Frame rate : 25.000 FPS
Color space : YUV
Chroma subsampling : 4:2:0
Bit depth : 8 bits
Scan type : Progressive
Compression mode : Lossy
Bits/(Pixel*Frame) : 0.362
Stream size : 1.30 GiB (83%)
Writing library : XviD 1.1.0 (UTC 2005-11-22)

Audio
ID : 1
Format : AC-3
Format/Info : Audio Coding 3
Mode extension : CM (complete main)
Format settings, Endianness : Big
Codec ID : 2000
Duration : 1 h 33 min
Bit rate mode : Constant
Bit rate : 384 kb/s
Channel(s) : 6 channels
Channel positions : Front: L C R, Side: L R, LFE
Sampling rate : 48.0 kHz
Frame rate : 31.250 FPS (1536 spf)
Compression mode : Lossy
Stream size : 257 MiB (16%)
Alignment : Split accross interleaves
Interleave, duration : 40 ms (1.00 video frame)
Interleave, preload duratio : 500 ms




Screenshots

Iqbal - Bambini senza paura (2015)

Iqbal - Bambini senza paura (2015)

Iqbal - Bambini senza paura (2015)