Tags
Language
Tags

Iron Monkey (1993)

Posted By: Tavaz
1080p (FullHD) / BDRip IMDb
Iron Monkey (1993)

Iron Monkey (1993)
BDRip | MKV | 1920x1080 | 中文 | H264 @ 5760 kbps | AC-3 @ 96 kbps | 1 h 30 min | 3.69 GiB
Subtitles: English
Genre: Action, Crime, Drama

Iron Monkey is a Hong Kong variation of Robin Hood. Corrupt officials of a Chinese village are robbed by a masked bandit known as "Iron Monkey", named after a benevolent deity. When all else fails, the Governor forces a traveling physician into finding the bandit. The arrival of an evil Shaolin monk, brings the physician and Iron Monkey together to battle the corrupt government.

3faf2af69e692f0fe73e53b6c7419a74.mkv (3.7 GB)



General
Complete name : ./3faf2af69e692f0fe73e53b6c7419a74.mkv
Format : Matroska
Format version : Version 4 / Version 2
File size : 3.69 GiB
Duration : 1 h 30 min
Overall bit rate : 5 853 kb/s
Encoded date : UTC 2020-09-17 03:11:37 / UTC 2020-09-16T03:38:12Z
Writing application : mkvmerge v47.0.0 ('Black Flag') 64-bit
Writing library : libebml v1.3.10 + libmatroska v1.5.2 / Lavf57.7.2

Video
ID : 1
Format : AVC
Format/Info : Advanced Video Codec
Format profile : High@L4
Format settings : CABAC / 4 Ref Frames
Format settings, CABAC : Yes
Format settings, RefFrames : 4 frames
Codec ID : V_MPEG4/ISO/AVC
Duration : 1 h 30 min
Bit rate : 5 760 kb/s
Width : 1 920 pixels
Height : 1 080 pixels
Display aspect ratio : 16:9
Frame rate mode : Constant
Frame rate : 23.976 (24000/1001) FPS
Color space : YUV
Chroma subsampling : 4:2:0
Bit depth : 8 bits
Scan type : Progressive
Bits/(Pixel*Frame) : 0.116
Stream size : 3.56 GiB (96%)
Writing library : x264 core 155 r2901 7d0ff22
Encoding settings : cabac=1 / ref=4 / deblock=1:-3:-3 / analyse=0x3:0x133 / me=umh / subme=9 / psy=1 / psy_rd=1.10:0.25 / mixed_ref=1 / me_range=32 / chroma_me=1 / trellis=2 / 8x8dct=1 / cqm=0 / deadzone=6,6 / fast_pskip=1 / chroma_qp_offset=-4 / threads=34 / lookahead_threads=3 / sliced_threads=0 / nr=0 / decimate=1 / interlaced=0 / bluray_compat=0 / constrained_intra=0 / bframes=6 / b_pyramid=2 / b_adapt=2 / b_bias=0 / direct=3 / weightb=1 / open_gop=0 / weightp=2 / keyint=240 / keyint_min=24 / scenecut=40 / intra_refresh=0 / rc_lookahead=40 / rc=2pass / mbtree=1 / bitrate=5760 / ratetol=1.0 / qcomp=0.60 / qpmin=0 / qpmax=69 / qpstep=4 / cplxblur=20.0 / qblur=0.5 / vbv_maxrate=20000 / vbv_bufsize=25000 / nal_hrd=none / filler=0 / ip_ratio=1.40 / aq=1:1.00
Language : English
Default : Yes
Forced : No
Color range : Limited
Color primaries : BT.709
Transfer characteristics : BT.709
Matrix coefficients : BT.709
Statistics Tags Issue : mkvmerge v47.0.0 ('Black Flag') 64-bit 2020-09-17 03:11:37 / mkvmerge v47.0.0 ('Black Flag') 64-bit 2020-09-17 03:11:37 / UTC 2020-09-16T03:38:12Z
FromStats_BitRate : 5754875
FromStats_Duration : 01:30:20.123000000
FromStats_FrameCount : 129953
FromStats_StreamSize : 3899016448

Audio
ID : 2
Format : AC-3
Format/Info : Audio Coding 3
Format settings, Endianness : Big
Codec ID : A_AC3
Duration : 1 h 30 min
Bit rate mode : Constant
Bit rate : 96.0 kb/s
Channel(s) : 1 channel
Channel positions : Front: C
Sampling rate : 48.0 kHz
Frame rate : 31.250 FPS (1536 SPF)
Bit depth : 16 bits
Compression mode : Lossy
Stream size : 62.0 MiB (2%)
Title : Mono
Language : Chinese
Service kind : Complete Main
Default : Yes
Forced : No
Statistics Tags Issue : mkvmerge v47.0.0 ('Black Flag') 64-bit 2020-09-17 03:11:37 / mkvmerge v47.0.0 ('Black Flag') 64-bit 2020-09-17 03:11:37 / UTC 2020-09-16T03:38:12Z
FromStats_BitRate : 96000
FromStats_Duration : 01:30:20.128000000
FromStats_FrameCount : 169379
FromStats_StreamSize : 65041536

Text
ID : 3
Format : UTF-8
Codec ID : S_TEXT/UTF8
Codec ID/Info : UTF-8 Plain Text
Title : Forced
Language : English
Default : Yes
Forced : Yes
Statistics Tags Issue : mkvmerge v47.0.0 ('Black Flag') 64-bit 2020-09-17 03:11:37 / mkvmerge v47.0.0 ('Black Flag') 64-bit 2020-09-17 03:11:37 / UTC 2020-09-16T03:38:12Z
FromStats_BitRate : 60
FromStats_Duration : 01:27:12.727000000
FromStats_FrameCount : 1202
FromStats_StreamSize : 39546

Menu
00:00:00.000 : :Chapter 1
00:07:54.724 : :Chapter 2
00:14:17.774 : :Chapter 3
00:26:11.070 : :Chapter 4
00:34:10.340 : :Chapter 5
00:41:40.540 : :Chapter 6
00:48:33.911 : :Chapter 7
00:53:44.304 : :Chapter 8
00:58:55.657 : :Chapter 9
01:08:08.209 : :Chapter 10
01:13:50.760 : :Chapter 11
01:28:03.111 : :Chapter 12





Iron Monkey (1993)


Iron Monkey (1993)


Iron Monkey (1993)


Iron Monkey (1993)


Iron Monkey (1993)