J'ai perdu Albert (2018)

Posted By: JohnSmith
1080p (FullHD) / WEB-DL IMDb
J'ai perdu Albert (2018)

J'ai perdu Albert (2018)
WEB-DL 1080p | MKV / AVC@4520 kb/s | 1916x800 | 1h 36mn | Français (VFi): AC3, 384 kb/s (6 ch) | 3.29 GB
Genre: Comedy

Chloé, jeune médium que s’arrachent les grands chefs d’entreprises, les hommes politiques et la jet set, abrite en elle depuis l’enfance l’esprit d’Albert Einstein. Mais, prise au piège de son succès, elle en fait trop ! Surmenée, les informations ne « passent » plus. Alors Albert décide de déménager… Pour le meilleur et pour le pire, il s’installe dans Zac, un dépressif cartésien, apiculteur en déroute et garçon de café. Devenus indissociables et complémentaires, parce que l’un détient le « génie » et l’autre son mode d’emploi, Zac et Chloé, ces deux êtres que tout oppose, vont vivre en 48 heures le plus hallucinant des «ménages à trois»…


General
Unique ID : 110405016853465849877413352287785255985 (0x530F3B98935139CD32777D4B73BD0431)
Complete name : C:\Jai.perdu.Albert.2018.FRENCH.1080p.WEB.mkv
Format : Matroska
Format version : Version 4
File size : 3.29 GiB
Duration : 1 h 36 min
Overall bit rate : 4 906 kb/s
Encoded date : UTC 2019-01-16 06:21:11
Writing application : mkvmerge v29.0.0 ('Like It Or Not') 64-bit
Writing library : libebml v1.3.6 + libmatroska v1.4.9

Video
ID : 2
Format : AVC
Format/Info : Advanced Video Codec
Format profile : High@L4
Format settings : CABAC / 5 Ref Frames
Format settings, CABAC : Yes
Format settings, Reference : 5 frames
Codec ID : V_MPEG4/ISO/AVC
Duration : 1 h 36 min
Bit rate : 4 520 kb/s
Width : 1 916 pixels
Height : 800 pixels
Display aspect ratio : 2.40:1
Frame rate mode : Constant
Frame rate : 25.000 FPS
Color space : YUV
Chroma subsampling : 4:2:0
Bit depth : 8 bits
Scan type : Progressive
Bits/(Pixel*Frame) : 0.118
Stream size : 3.03 GiB (92%)
Language : English
Default : Yes
Forced : No
Color range : Limited
Color primaries : BT.709
Transfer characteristics : BT.709
Matrix coefficients : BT.709

Audio
ID : 1
Format : AC-3
Format/Info : Audio Coding 3
Commercial name : Dolby Digital
Codec ID : A_AC3
Duration : 1 h 36 min
Bit rate mode : Constant
Bit rate : 384 kb/s
Channel(s) : 6 channels
Channel layout : L R C LFE Ls Rs
Sampling rate : 48.0 kHz
Frame rate : 31.250 FPS (1536 SPF)
Bit depth : 16 bits
Compression mode : Lossy
Delay relative to video : -40 ms
Stream size : 264 MiB (8%)
Language : French
Service kind : Complete Main
Default : Yes
Forced : No

Text
ID : 3
Format : UTF-8
Codec ID : S_TEXT/UTF8
Codec ID/Info : UTF-8 Plain Text
Duration : 58 min 3 s
Bit rate : 0 b/s
Count of elements : 9
Stream size : 172 Bytes (0%)
Title : Forced
Language : French
Default : Yes
Forced : No

Menu
00:00:00.000 : en:Chapitre 1
00:10:30.800 : en:Chapitre 2
00:20:26.560 : en:Chapitre 3
00:29:37.320 : en:Chapitre 4
00:39:48.400 : en:Chapitre 5
00:50:02.960 : en:Chapitre 6
01:00:37.000 : en:Chapitre 7
01:09:29.119 : en:Chapitre 8
01:19:33.919 : en:Chapitre 9
01:31:28.879 : en:Chapitre 10




Screenshots

J'ai perdu Albert (2018)

J'ai perdu Albert (2018)

J'ai perdu Albert (2018)