Jal al-ji-do mot-ha-myeon-seo / Like You Know It All (2009)

Posted By: Rare-1
Jal al-ji-do mot-ha-myeon-seo / Like You Know It All (2009)

Jal al-ji-do mot-ha-myeon-seo / Like You Know It All (2009)
DVDRip | MKV | 716 x 480 | AVC @ 1191 Kbps | 127 min | 1.46 Gb
Audio: Korean AC3 5.1 @ 448 Kbps | Subs: English (embedded)
Genre: Drama | South Korea

Delightfully comic exploration of the emotional and social geography of an art-house film director.

Jal al-ji-do mot-ha-myeon-seo / Like You Know It All (2009)

Jal al-ji-do mot-ha-myeon-seo / Like You Know It All (2009)


IMDB 7.0/10 from 524 users

Director: Sang-soo Hong
Writer: Sang-soo Hong (screenplay)
Actors: Tae-woo Kim, Ji-won Uhm, Hyun-jung Go, Hyeong-jin Kong
Rated: N/A
Runtime: 127 min

Invited to serve on the jury at a film festival, Director Ku does not care about his supposed-to-dos. Rather, chatting at parties and drinking now seem to be his all time favorites. Ku runs into an old friend who insists he come over for dinner and he stays the night at his friend's house. Yet, the next day, Ku finds himself in trouble with an alleged accusation of seducing his friend's wife. Later, he travels to Jeju Island to give a lecture. He hooks up with a painter for another long night of drinking. The day after, Ku is invited to the painter's where he happens to see his ex-girlfriend.

Jal al-ji-do mot-ha-myeon-seo / Like You Know It All (2009)

Jal al-ji-do mot-ha-myeon-seo / Like You Know It All (2009)

Jal al-ji-do mot-ha-myeon-seo / Like You Know It All (2009)


Jal al-ji-do mot-ha-myeon-seo / Like You Know It All (2009)



General
Unique ID : 173793162538469937931781398398539122296 (0x82BF587857537723BF548BA7B247C678)
Complete name : E:\HDNLUF106\New folder (2)\Mass Folder Uploader\data/Like You Know It All (2009) DVDRip/like.you.know.it.all.2009.ntsc.dvd.x264-tree_.mkv
Format : Matroska
Format version : Version 2
File size : 1.46 GiB
Duration : 2h 7mn
Overall bit rate : 1 640 Kbps
Encoded date : UTC 2010-03-03 22:26:33
Writing application : mkvmerge v3.2.0 ('Beginnings') built on Feb 12 2010 16:46:17
Writing library : libebml v0.7.9 + libmatroska v0.8.1

Video
ID : 1
Format : AVC
Format/Info : Advanced Video Codec
Format profile : High@L4
Format settings, CABAC : Yes
Format settings, ReFrames : 16 frames
Codec ID : V_MPEG4/ISO/AVC
Duration : 2h 7mn
Bit rate : 1 191 Kbps
Width : 716 pixels
Height : 480 pixels
Display aspect ratio : 16:9
Frame rate mode : Constant
Frame rate : 23.976 fps
Color space : YUV
Chroma subsampling : 4:2:0
Bit depth : 8 bits
Scan type : Progressive
Bits/(Pixel*Frame) : 0.145
Stream size : 1.03 GiB (71%)
Title : Video Track
Writing library : x264 core 85 r1442kGIT 781d300
Encoding settings : cabac=1 / ref=16 / deblock=1:-2:-2 / analyse=0x3:0x133 / me=tesa / subme=10 / psy=1 / psy_rd=1.00:0.15 / mixed_ref=1 / me_range=32 / chroma_me=1 / trellis=2 / 8x8dct=1 / cqm=0 / deadzone=21,11 / fast_pskip=0 / chroma_qp_offset=-3 / threads=6 / sliced_threads=0 / nr=0 / decimate=1 / mbaff=0 / interlaced=0 / constrained_intra=0 / bframes=12 / b_pyramid=2 / b_adapt=2 / b_bias=0 / direct=3 / wpredb=1 / wpredp=2 / keyint=250 / keyint_min=25 / scenecut=40 / intra_refresh=0 / rc_lookahead=60 / rc=2pass / mbtree=1 / bitrate=1191 / ratetol=1.0 / qcomp=0.60 / qpmin=10 / qpmax=51 / qpstep=4 / cplxblur=20.0 / qblur=0.5 / ip_ratio=1.40 / aq=1:1.00 / pulldown=0
Language : Korean
Default : Yes
Forced : No

Audio
ID : 2
Format : AC-3
Format/Info : Audio Coding 3
Mode extension : CM (complete main)
Format settings, Endianness : Big
Codec ID : A_AC3
Duration : 2h 7mn
Bit rate mode : Constant
Bit rate : 448 Kbps
Channel(s) : 6 channels
Channel positions : Front: L C R, Side: L R, LFE
Sampling rate : 48.0 KHz
Compression mode : Lossy
Stream size : 407 MiB (27%)
Title : Audio Track
Language : Korean
Default : Yes
Forced : No

Text
ID : 3
Format : UTF-8
Codec ID : S_TEXT/UTF8
Codec ID/Info : UTF-8 Plain Text
Title : Subtitle Track
Language : English
Default : Yes
Forced : No


Many Thanks to Original uploader.


For More Rare Movies Check out my blog!


Download Links :

No Mirrors Please