Jason Bourne (2016)

Posted By: JohnSmith
Jason Bourne (2016)

Jason Bourne (2016)
BDRip 1080p | MKV / HEVC@1560 kb/s | 1920x808 | 2h 3mn | 1.51 GB
English: AAC, 192 kb/s (6 ch) | Subtitles: English
Genre: Action | Thriller

The most dangerous former operative of the CIA is drawn out of hiding to uncover hidden truths about his past.




General
Unique ID : 212113403045080237231658783088001782539 (0x9F938E322BA0B76094F1396965BD930B)
Complete name : D:\Downloads\Jason.Bourne.2016.1080p.BluRay.x265.HEVC.6CH-MRN.mkv
Format : Matroska
Format version : Version 4 / Version 2
File size : 1.51 GiB
Duration : 2 h 3 min
Overall bit rate : 1 751 kb/s
Encoded date : UTC 2016-11-18 07:55:05
Writing application : mkvmerge v9.1.0 ('Little Earthquakes') 32bit
Writing library : libebml v1.3.3 + libmatroska v1.4.4

Video
ID : 2
Format : HEVC
Format/Info : High Efficiency Video Coding
Codec ID : V_MPEGH/ISO/HEVC
Duration : 2 h 3 min
Bit rate : 1 560 kb/s
Width : 1 920 pixels
Height : 808 pixels
Display aspect ratio : 2.40:1
Frame rate mode : Constant
Frame rate : 23.976 (24000/1001) FPS
Bits/(Pixel*Frame) : 0.042
Stream size : 1.34 GiB (89%)
Default : Yes
Forced : No

Audio
ID : 3
Format : AAC
Format/Info : Advanced Audio Codec
Format profile : HE-AAC / LC
Codec ID : A_AAC
Duration : 2 h 3 min
Bit rate : 192 kb/s
Channel(s) : 6 channels
Channel positions : Front: L C R, Side: L R, LFE
Sampling rate : 48.0 kHz / 24.0 kHz
Frame rate : 23.438 FPS (1024 spf)
Compression mode : Lossy
Delay relative to video : 31 ms
Stream size : 167 MiB (11%)
Default : Yes
Forced : No

Text
ID : 1
Format : UTF-8
Codec ID : S_TEXT/UTF8
Codec ID/Info : UTF-8 Plain Text
Duration : 1 h 53 min
Bit rate : 58 b/s
Count of elements : 1244
Stream size : 48.6 KiB (0%)
Default : Yes
Forced : No

Menu
00:00:00.097 : en:00:00:00.097




Jason Bourne (2016)

Screenshots

Jason Bourne (2016)

Jason Bourne (2016)

Jason Bourne (2016)