Jason Bourne (2016)

Posted By: JohnSmith
Jason Bourne (2016)

Jason Bourne (2016)
BDRip | MKV / AVC@862 kb/s | 720x302 | 2h 3mn | 873 MB | English: AAC, 125 kb/s (2 ch)
BRRip | MKV / AVC@1500 kb/s | 720x304 | 2h 3mn | 1.68 GB | English: AC3, 448 kb/s (6 ch)
BDRip 720p | MKV / AVC@4840 kb/s | 1280x536 | 2h 3mn | 5.46 GB | English: DTS, 1509 kb/s (6 ch)
BDRip 1080p | MKV / AVC@8654 kb/s | 1920x808 | 2h 3mn | 8.74 GB | English: DTS, 1509 kb/s (6 ch)
Genre: Action | Thriller

The most dangerous former operative of the CIA is drawn out of hiding to uncover hidden truths about his past.




General
Unique ID : 184479022333452092393021659134096619807 (0x8AC95E08D608931BBC489FE7A7FCB91F)
Complete name : A:\Jason.Bourne.2016.BDRip.x264-SPARKS.mkv
Format : Matroska
Format version : Version 4 / Version 2
File size : 873 MiB
Duration : 2 h 3 min
Overall bit rate : 991 kb/s
Encoded date : UTC 2016-11-17 07:33:07
Writing application : mkvmerge v8.3.0 ('Over the Horizon') 64bit
Writing library : libebml v1.3.1 + libmatroska v1.4.2

Video
ID : 1
Format : AVC
Format/Info : Advanced Video Codec
Format profile : High@L3.1
Format settings, CABAC : Yes
Format settings, ReFrames : 5 frames
Codec ID : V_MPEG4/ISO/AVC
Duration : 2 h 3 min
Bit rate : 863 kb/s
Width : 720 pixels
Height : 302 pixels
Display aspect ratio : 2.40:1
Frame rate mode : Constant
Frame rate : 23.976 FPS
Color space : YUV
Chroma subsampling : 4:2:0
Bit depth : 8 bits
Scan type : Progressive
Bits/(Pixel*Frame) : 0.165
Stream size : 760 MiB (87%)
Title : X264
Writing library : x264 core 148 r2705 3f5ed56
Encoding settings : cabac=1 / ref=5 / deblock=1:-2:-2 / analyse=0x3:0x113 / me=umh / subme=8 / psy=1 / psy_rd=0.90:0.00 / mixed_ref=1 / me_range=16 / chroma_me=1 / trellis=1 / 8x8dct=1 / cqm=0 / deadzone=21,11 / fast_pskip=1 / chroma_qp_offset=-2 / threads=9 / lookahead_threads=1 / sliced_threads=0 / nr=0 / decimate=1 / interlaced=0 / bluray_compat=0 / constrained_intra=0 / bframes=3 / b_pyramid=2 / b_adapt=2 / b_bias=0 / direct=3 / weightb=1 / open_gop=0 / weightp=2 / keyint=250 / keyint_min=23 / scenecut=40 / intra_refresh=0 / rc_lookahead=50 / rc=crf / mbtree=1 / crf=19.0 / qcomp=0.60 / qpmin=0 / qpmax=69 / qpstep=4 / ip_ratio=1.40 / aq=1:1.00
Language : English
Default : Yes
Forced : No
Color range : Limited
Matrix coefficients : BT.709

Audio
ID : 2
Format : AAC
Format/Info : Advanced Audio Codec
Format profile : LC
Codec ID : A_AAC
Duration : 2 h 3 min
Bit rate : 126 kb/s
Channel(s) : 2 channels
Channel positions : Front: L R
Sampling rate : 48.0 kHz
Frame rate : 46.875 FPS (1024 spf)
Compression mode : Lossy
Stream size : 111 MiB (13%)
Language : English
Default : Yes
Forced : No

Menu
00:00:00.000 : en:00:00:00.000
00:04:04.661 : en:00:04:04.661
00:08:21.543 : en:00:08:21.543
00:13:32.687 : en:00:13:32.687
00:18:28.316 : en:00:18:28.316
00:24:07.237 : en:00:24:07.237
00:29:21.259 : en:00:29:21.259
00:36:15.548 : en:00:36:15.548
00:42:20.663 : en:00:42:20.663
00:48:22.441 : en:00:48:22.441
00:55:12.184 : en:00:55:12.184
01:01:09.666 : en:01:01:09.666
01:08:32.483 : en:01:08:32.483
01:16:23.329 : en:01:16:23.329
01:24:45.330 : en:01:24:45.330
01:29:06.550 : en:01:29:06.550
01:37:52.909 : en:01:37:52.909
01:44:26.343 : en:01:44:26.343
01:48:03.727 : en:01:48:03.727
01:54:01.209 : en:01:54:01.209





General
Unique ID : 209663042429505375430400088742874092600 (0x9DBBA21713C9B02BB775A76BACFC9438)
Complete name : A:\Jason.Bourne.2016.BRRip.mkv
Format : Matroska
Format version : Version 4 / Version 2
File size : 1.68 GiB
Duration : 2 h 3 min
Overall bit rate : 1 950 kb/s
Encoded date : UTC 2016-11-17 08:04:27
Writing application : mkvmerge v8.3.0 ('Over the Horizon') 64bit
Writing library : libebml v1.3.1 + libmatroska v1.4.2

Video
ID : 1
Format : AVC
Format/Info : Advanced Video Codec
Format profile : Baseline@L3.1
Format settings, CABAC : No
Format settings, ReFrames : 1 frame
Codec ID : V_MPEG4/ISO/AVC
Duration : 2 h 3 min
Bit rate : 1 500 kb/s
Width : 720 pixels
Height : 304 pixels
Display aspect ratio : 2.35:1
Frame rate mode : Constant
Frame rate : 23.976 (24000/1001) FPS
Color space : YUV
Chroma subsampling : 4:2:0
Bit depth : 8 bits
Scan type : Progressive
Bits/(Pixel*Frame) : 0.286
Stream size : 1.29 GiB (77%)
Writing library : x264 core 142 r2479 dd79a61
Encoding settings : cabac=0 / ref=1 / deblock=1:0:0 / analyse=0x1:0x111 / me=hex / subme=2 / psy=1 / psy_rd=1.00:0.00 / mixed_ref=0 / me_range=16 / chroma_me=1 / trellis=0 / 8x8dct=0 / cqm=0 / deadzone=21,11 / fast_pskip=1 / chroma_qp_offset=0 / threads=18 / lookahead_threads=2 / sliced_threads=0 / nr=0 / decimate=1 / interlaced=0 / bluray_compat=0 / constrained_intra=0 / bframes=0 / weightp=0 / keyint=240 / keyint_min=24 / scenecut=40 / intra_refresh=0 / rc_lookahead=10 / rc=2pass / mbtree=1 / bitrate=1500 / ratetol=1.0 / qcomp=0.60 / qpmin=0 / qpmax=69 / qpstep=4 / cplxblur=20.0 / qblur=0.5 / vbv_maxrate=14000 / vbv_bufsize=14000 / nal_hrd=none / filler=0 / ip_ratio=1.40 / aq=1:1.00
Default : Yes
Forced : No
Color range : Limited
Color primaries : BT.709
Transfer characteristics : BT.709
Matrix coefficients : BT.709

Audio
ID : 2
Format : AC-3
Format/Info : Audio Coding 3
Mode extension : CM (complete main)
Format settings, Endianness : Big
Codec ID : A_AC3
Duration : 2 h 3 min
Bit rate mode : Constant
Bit rate : 448 kb/s
Channel(s) : 6 channels
Channel positions : Front: L C R, Side: L R, LFE
Sampling rate : 48.0 kHz
Frame rate : 31.250 FPS (1536 spf)
Compression mode : Lossy
Delay relative to video : -5 ms
Stream size : 395 MiB (23%)
Title : Surround
Language : English
Default : Yes
Forced : No





General
Unique ID : 247868829295615010146123171678767214140 (0xBA79CCD0DE0CACE393063F23C796EE3C)
Complete name : A:\Jason.Bourne.2016.720p.BluRay.x264-SPARKS.mkv
Format : Matroska
Format version : Version 4 / Version 2
File size : 5.46 GiB
Duration : 2 h 3 min
Overall bit rate : 6 349 kb/s
Encoded date : UTC 2016-11-17 07:01:46
Writing application : mkvmerge v8.3.0 ('Over the Horizon') 64bit
Writing library : libebml v1.3.1 + libmatroska v1.4.2

Video
ID : 1
Format : AVC
Format/Info : Advanced Video Codec
Format profile : High@L4.1
Format settings, CABAC : Yes
Format settings, ReFrames : 5 frames
Codec ID : V_MPEG4/ISO/AVC
Duration : 2 h 3 min
Bit rate : 4 840 kb/s
Width : 1 280 pixels
Height : 536 pixels
Display aspect ratio : 2.40:1
Frame rate mode : Constant
Frame rate : 23.976 FPS
Color space : YUV
Chroma subsampling : 4:2:0
Bit depth : 8 bits
Scan type : Progressive
Bits/(Pixel*Frame) : 0.294
Stream size : 4.16 GiB (76%)
Writing library : x264 core 148 r2705 3f5ed56
Encoding settings : cabac=1 / ref=5 / deblock=1:0:0 / analyse=0x3:0x133 / me=umh / subme=7 / psy=1 / psy_rd=1.00:0.00 / mixed_ref=1 / me_range=16 / chroma_me=1 / trellis=1 / 8x8dct=1 / cqm=0 / deadzone=21,11 / fast_pskip=0 / chroma_qp_offset=-2 / threads=12 / lookahead_threads=2 / sliced_threads=0 / nr=0 / decimate=1 / interlaced=0 / bluray_compat=0 / constrained_intra=0 / bframes=3 / b_pyramid=2 / b_adapt=1 / b_bias=0 / direct=1 / weightb=1 / open_gop=0 / weightp=2 / keyint=250 / keyint_min=23 / scenecut=40 / intra_refresh=0 / rc_lookahead=40 / rc=2pass / mbtree=1 / bitrate=4840 / ratetol=1.0 / qcomp=0.60 / qpmin=0 / qpmax=69 / qpstep=4 / cplxblur=20.0 / qblur=0.5 / ip_ratio=1.40 / aq=1:1.00
Language : English
Default : Yes
Forced : No

Audio
ID : 2
Format : DTS
Format/Info : Digital Theater Systems
Mode : 16
Format settings, Endianness : Big
Codec ID : A_DTS
Duration : 2 h 3 min
Bit rate mode : Constant
Bit rate : 1 509 kb/s
Channel(s) : 6 channels
Channel positions : Front: L C R, Side: L R, LFE
Sampling rate : 48.0 kHz
Frame rate : 93.750 FPS (512 spf)
Bit depth : 24 bits
Compression mode : Lossy
Stream size : 1.30 GiB (24%)
Language : English
Default : Yes
Forced : No

Menu
00:00:00.000 : en:00:00:00.000
00:04:04.661 : en:00:04:04.661
00:08:21.543 : en:00:08:21.543
00:13:32.687 : en:00:13:32.687
00:18:28.316 : en:00:18:28.316
00:24:07.237 : en:00:24:07.237
00:29:21.259 : en:00:29:21.259
00:36:15.548 : en:00:36:15.548
00:42:20.663 : en:00:42:20.663
00:48:22.441 : en:00:48:22.441
00:55:12.184 : en:00:55:12.184
01:01:09.666 : en:01:01:09.666
01:08:32.483 : en:01:08:32.483
01:16:23.329 : en:01:16:23.329
01:24:45.330 : en:01:24:45.330
01:29:06.550 : en:01:29:06.550
01:37:52.909 : en:01:37:52.909
01:44:26.343 : en:01:44:26.343
01:48:03.727 : en:01:48:03.727
01:54:01.209 : en:01:54:01.209





General
Unique ID : 237044609803903062679936999990738243487 (0xB25521977B91F6FB9EBC8BFCB67B4F9F)
Complete name : A:\Jason.Bourne.2016.1080p.BluRay.x264-SPARKS.mkv
Format : Matroska
Format version : Version 4 / Version 2
File size : 8.74 GiB
Duration : 2 h 3 min
Overall bit rate : 10.2 Mb/s
Encoded date : UTC 2016-11-17 07:14:51
Writing application : mkvmerge v8.3.0 ('Over the Horizon') 64bit
Writing library : libebml v1.3.1 + libmatroska v1.4.2

Video
ID : 1
Format : AVC
Format/Info : Advanced Video Codec
Format profile : High@L4.1
Format settings, CABAC : Yes
Format settings, ReFrames : 5 frames
Codec ID : V_MPEG4/ISO/AVC
Duration : 2 h 3 min
Bit rate : 8 654 kb/s
Width : 1 920 pixels
Height : 808 pixels
Display aspect ratio : 2.40:1
Frame rate mode : Constant
Frame rate : 23.976 FPS
Color space : YUV
Chroma subsampling : 4:2:0
Bit depth : 8 bits
Scan type : Progressive
Bits/(Pixel*Frame) : 0.233
Stream size : 7.44 GiB (85%)
Writing library : x264 core 148 r2705 3f5ed56
Encoding settings : cabac=1 / ref=5 / deblock=1:0:0 / analyse=0x3:0x133 / me=umh / subme=7 / psy=1 / psy_rd=1.00:0.00 / mixed_ref=1 / me_range=16 / chroma_me=1 / trellis=1 / 8x8dct=1 / cqm=0 / deadzone=21,11 / fast_pskip=0 / chroma_qp_offset=-2 / threads=25 / lookahead_threads=4 / sliced_threads=0 / nr=0 / decimate=1 / interlaced=0 / bluray_compat=0 / constrained_intra=0 / bframes=3 / b_pyramid=2 / b_adapt=1 / b_bias=0 / direct=1 / weightb=1 / open_gop=0 / weightp=2 / keyint=250 / keyint_min=23 / scenecut=40 / intra_refresh=0 / rc_lookahead=40 / rc=2pass / mbtree=1 / bitrate=8654 / ratetol=1.0 / qcomp=0.60 / qpmin=0 / qpmax=69 / qpstep=4 / cplxblur=20.0 / qblur=0.5 / ip_ratio=1.40 / aq=1:1.00
Language : English
Default : Yes
Forced : No

Audio
ID : 2
Format : DTS
Format/Info : Digital Theater Systems
Mode : 16
Format settings, Endianness : Big
Codec ID : A_DTS
Duration : 2 h 3 min
Bit rate mode : Constant
Bit rate : 1 509 kb/s
Channel(s) : 6 channels
Channel positions : Front: L C R, Side: L R, LFE
Sampling rate : 48.0 kHz
Frame rate : 93.750 FPS (512 spf)
Bit depth : 24 bits
Compression mode : Lossy
Stream size : 1.30 GiB (15%)
Language : English
Default : Yes
Forced : No

Menu
00:00:00.000 : en:00:00:00.000
00:04:04.661 : en:00:04:04.661
00:08:21.543 : en:00:08:21.543
00:13:32.687 : en:00:13:32.687
00:18:28.316 : en:00:18:28.316
00:24:07.237 : en:00:24:07.237
00:29:21.259 : en:00:29:21.259
00:36:15.548 : en:00:36:15.548
00:42:20.663 : en:00:42:20.663
00:48:22.441 : en:00:48:22.441
00:55:12.184 : en:00:55:12.184
01:01:09.666 : en:01:01:09.666
01:08:32.483 : en:01:08:32.483
01:16:23.329 : en:01:16:23.329
01:24:45.330 : en:01:24:45.330
01:29:06.550 : en:01:29:06.550
01:37:52.909 : en:01:37:52.909
01:44:26.343 : en:01:44:26.343
01:48:03.727 : en:01:48:03.727
01:54:01.209 : en:01:54:01.209




Screenshots BDRip

Jason Bourne (2016)

Jason Bourne (2016)

Jason Bourne (2016)


Screenshots BRRip

Jason Bourne (2016)

Jason Bourne (2016)

Jason Bourne (2016)


Screenshots BDRip 720p

Jason Bourne (2016)

Jason Bourne (2016)

Jason Bourne (2016)


Screenshots BDRip 1080p

Jason Bourne (2016)

Jason Bourne (2016)

Jason Bourne (2016)

BRRip
http://nitroflare.com/view/0EEF030925F7DCE/Jason.Bourne.2016.BRRip.part1.rar
http://nitroflare.com/view/41E2E11CE9D1C8B/Jason.Bourne.2016.BRRip.part2.rar
http://nitroflare.com/view/FFEC546EFF41D2B/Jason.Bourne.2016.BRRip.part3.rar
BDRip 720p
http://nitroflare.com/view/9353A6E9B5945F6/Jason.Bourne.2016.720p.BluRay.x264-SPARKS.part1.rar
http://nitroflare.com/view/CFF942BEBBD5D03/Jason.Bourne.2016.720p.BluRay.x264-SPARKS.part2.rar
http://nitroflare.com/view/65A91D3E92AFCBB/Jason.Bourne.2016.720p.BluRay.x264-SPARKS.part3.rar
http://nitroflare.com/view/4E2F6D469BB92E8/Jason.Bourne.2016.720p.BluRay.x264-SPARKS.part4.rar
http://nitroflare.com/view/8BA3F781941A905/Jason.Bourne.2016.720p.BluRay.x264-SPARKS.part5.rar
http://nitroflare.com/view/01CD86766ADC71F/Jason.Bourne.2016.720p.BluRay.x264-SPARKS.part6.rar
BDRip 1080p
http://nitroflare.com/view/85E05E451CB71EF/Jason.Bourne.2016.1080p.BluRay.x264-SPARKS.part01.rar
http://nitroflare.com/view/72CDB9DC4AE534C/Jason.Bourne.2016.1080p.BluRay.x264-SPARKS.part02.rar
http://nitroflare.com/view/14DFC51D9BC3FFB/Jason.Bourne.2016.1080p.BluRay.x264-SPARKS.part03.rar
http://nitroflare.com/view/2EEC5E793048236/Jason.Bourne.2016.1080p.BluRay.x264-SPARKS.part04.rar
http://nitroflare.com/view/F8125E56DA82C5B/Jason.Bourne.2016.1080p.BluRay.x264-SPARKS.part05.rar
http://nitroflare.com/view/A45DA7012A2478D/Jason.Bourne.2016.1080p.BluRay.x264-SPARKS.part06.rar
http://nitroflare.com/view/54354E0EFC084EF/Jason.Bourne.2016.1080p.BluRay.x264-SPARKS.part07.rar
http://nitroflare.com/view/E33574375E4D750/Jason.Bourne.2016.1080p.BluRay.x264-SPARKS.part08.rar
http://nitroflare.com/view/184C8B28910C8D7/Jason.Bourne.2016.1080p.BluRay.x264-SPARKS.part09.rar