Jason Bourne (2016) [UPDATE]

Posted By: JohnSmith
Jason Bourne (2016) [UPDATE]

Jason Bourne (2016)
BDRip | MKV / AVC@1760 kb/s | 848x352 | 2h 3mn | 2.07 GB
Italian: AC3, 640 kb/s (6 ch) | Subtitles: Italian (forced, full)
Genre: Action | Thriller

Jason Bourne, il più letale ex agente della Cia, è costretto a uscire fuori dall'ombra. Dopo aver fatto chiarezza sulle sue origini e sulla sua identità, Bourne ha vissuto una parvenza di pace facendo perdere le sue tracce ma l'attivazione di un nuovo programma di manipolazione da parte di una rete internazionale più potente di ogni singolo governo lo spinge a ritornare in azione.

IMDB - 3 nominations.


UPDATE: LD (Line dubbed) audio ––> BluRay original (studio) audio


General
Unique ID : 235314321032843573056174415598910179611 (0xB107E3C4D2AF59C6883D6C0C7D54091B)
Complete name : D:\Jason.Bourne.2016.iTA.Bluray.480p.x264-CYBER.mkv
Format : Matroska
Format version : Version 4 / Version 2
File size : 2.07 GiB
Duration : 2 h 3 min
Overall bit rate : 2 402 kb/s
Encoded date : UTC 2016-11-19 07:02:44
Writing application : mkvmerge v8.3.0 ('Over the Horizon') 64bit
Writing library : libebml v1.3.1 + libmatroska v1.4.2
Attachments : F1_T2_Video - .rar

Video
ID : 1
Format : AVC
Format/Info : Advanced Video Codec
Format profile : High@L4.1
Format settings, CABAC : Yes
Format settings, ReFrames : 5 frames
Codec ID : V_MPEG4/ISO/AVC
Duration : 2 h 3 min
Bit rate : 1 760 kb/s
Width : 848 pixels
Height : 352 pixels
Display aspect ratio : 2.40:1
Original display aspect rat : 2.40:1
Frame rate mode : Constant
Frame rate : 23.976 (24000/1001) FPS
Color space : YUV
Chroma subsampling : 4:2:0
Bit depth : 8 bits
Scan type : Progressive
Bits/(Pixel*Frame) : 0.246
Stream size : 1.51 GiB (73%)
Writing library : x264 core 148 r2721 72d53ab
Language : English
Default : Yes
Forced : No

Audio
ID : 2
Format : AC-3
Format/Info : Audio Coding 3
Mode extension : CM (complete main)
Format settings, Endianness : Big
Codec ID : A_AC3
Duration : 2 h 3 min
Bit rate mode : Constant
Bit rate : 640 kb/s
Channel(s) : 6 channels
Channel positions : Front: L C R, Side: L R, LFE
Sampling rate : 48.0 kHz
Frame rate : 31.250 FPS (1536 spf)
Compression mode : Lossy
Stream size : 564 MiB (27%)
Language : Italian
Default : Yes
Forced : No

Text #1
ID : 3
Format : UTF-8
Codec ID : S_TEXT/UTF8
Codec ID/Info : UTF-8 Plain Text
Duration : 2 h 0 min
Bit rate : 4 b/s
Count of elements : 121
Stream size : 3.84 KiB (0%)
Title : FORCED
Language : Italian
Default : Yes
Forced : Yes

Text #2
ID : 4
Format : UTF-8
Codec ID : S_TEXT/UTF8
Codec ID/Info : UTF-8 Plain Text
Duration : 2 h 2 min
Bit rate : 37 b/s
Count of elements : 1112
Stream size : 33.9 KiB (0%)
Title : REGOLARI
Language : Italian
Default : No
Forced : No




Screenshots

Jason Bourne (2016) [UPDATE]

Jason Bourne (2016) [UPDATE]

Jason Bourne (2016) [UPDATE]