Karera ga honki de amu toki wa / Close-Knit (2017)

Posted By: Rare-1
Karera ga honki de amu toki wa / Close-Knit (2017)

Karera ga honki de amu toki wa / Close-Knit (2017)
BDRip | MKV | 1024 x 556 | AVC @ 2391 Kbps | 127 min | 2.55 Gb
Audio: Japanese AC3 5.1 @ 448 Kbps | Subs: English (Embedded)
Genre: Drama | Japan

One spring Hiromi, who is the mother of an 11-year-old girl Tomo, left home for the umpteenth time. Tomo is accustomed to such a mother and as always went to Makio's place. He is a brother of Hiromi and has lived with Rinko, a pretty girlfriend. Actually, Rinko is a transwoman. She works as a caregiver in a nursing home where Makio's mother Sayuri who suffers from dementia is living. Rinko makes a delicious meal and sometimes cuddles Tomo. She is a little confused, but Tomo, Rinko and Makio start to live a life together. One day Rinko teaches Tomo to knit to control her temper. Rinko was also taught by her mother at the age of puberty when she struggled with her sexuality. A daughter neglected by her mother. A gentle uncle and his transgender lover. An angsty boy who recognizes a sense of himself as a gay - A warm "knitting" reorganizes unconventional family.

IMDB 6.3/10 from 252 users

Director: Naoko Ogigami
Writer: Naoko Ogigami
Actors: Tôma Ikuta, Eiko Koike, Mugi Kadowaki
Rated: N/A
Runtime: 127 min

Karera ga honki de amu toki wa / Close-Knit (2017)

Karera ga honki de amu toki wa / Close-Knit (2017)

Karera ga honki de amu toki wa / Close-Knit (2017)

Karera ga honki de amu toki wa / Close-Knit (2017)


Karera ga honki de amu toki wa / Close-Knit (2017)



General
Unique ID : 232999528710981974091612434333968823707 (0xAF4A13B22904D3FBB0ABF7A916C2F59B)
Complete name : E:\HDNLUF014\New folder\Naoko Ogigami - (2017) Close-Knit.mkv
Format : Matroska
Format version : Version 2
File size : 2.55 GiB
Duration : 2 h 7 min
Overall bit rate : 2 856 kb/s
Encoded date : UTC 2017-09-15 14:45:47
Writing application : mkvmerge v15.0.0 ('Duel with the Devil') 64-bit
Writing library : libebml v1.3.5 + libmatroska v1.4.5

Video
ID : 1
Format : AVC
Format/Info : Advanced Video Codec
Format profile : High@L4.1
Format settings, CABAC : Yes
Format settings, ReFrames : 10 frames
Codec ID : V_MPEG4/ISO/AVC
Duration : 2 h 7 min
Bit rate : 2 391 kb/s
Width : 1 024 pixels
Height : 556 pixels
Display aspect ratio : 1.85:1
Frame rate mode : Constant
Frame rate : 23.976 (24000/1001) FPS
Color space : YUV
Chroma subsampling : 4:2:0
Bit depth : 8 bits
Scan type : Progressive
Bits/(Pixel*Frame) : 0.175
Stream size : 2.13 GiB (84%)
Writing library : x264 core 152 r2851 ba24899
Encoding settings : cabac=1 / ref=10 / deblock=1:-1:-1 / analyse=0x3:0x133 / me=umh / subme=10 / psy=1 / psy_rd=1.00:0.15 / mixed_ref=1 / me_range=32 / chroma_me=1 / trellis=2 / 8x8dct=1 / cqm=0 / deadzone=21,11 / fast_pskip=0 / chroma_qp_offset=-3 / threads=12 / lookahead_threads=3 / sliced_threads=0 / nr=0 / decimate=0 / interlaced=0 / bluray_compat=0 / constrained_intra=0 / bframes=16 / b_pyramid=2 / b_adapt=2 / b_bias=0 / direct=3 / weightb=1 / open_gop=0 / weightp=2 / keyint=240 / keyint_min=23 / scenecut=40 / intra_refresh=0 / rc_lookahead=60 / rc=crf / mbtree=0 / crf=17.0 / qcomp=0.60 / qpmin=0 / qpmax=69 / qpstep=4 / vbv_maxrate=62500 / vbv_bufsize=78125 / crf_max=0.0 / nal_hrd=none / filler=0 / ip_ratio=1.40 / pb_ratio=1.30 / aq=1:1.00
Language : English
Default : Yes
Forced : No
Color range : Limited
Matrix coefficients : BT.709

Audio
ID : 2
Format : AC-3
Format/Info : Audio Coding 3
Mode extension : CM (complete main)
Format settings, Endianness : Big
Codec ID : A_AC3
Duration : 2 h 7 min
Bit rate mode : Constant
Bit rate : 448 kb/s
Channel(s) : 6 channels
Channel positions : Front: L C R, Side: L R, LFE
Sampling rate : 48.0 kHz
Frame rate : 31.250 FPS (1536 spf)
Bit depth : 16 bits
Compression mode : Lossy
Stream size : 409 MiB (16%)
Language : Japanese
Default : Yes
Forced : No

Text
ID : 3
Format : PGS
Muxing mode : zlib
Codec ID : S_HDMV/PGS
Codec ID/Info : Picture based subtitle format used on BDs/HD-DVDs
Duration : 2 h 7 min
Bit rate : 51.8 kb/s
Count of elements : 2517
Stream size : 47.0 MiB (2%)
Language : English
Default : Yes
Forced : No

Menu
00:00:00.000 : en:00:00:00.000
00:10:12.987 : en:00:10:12.987
00:18:13.509 : en:00:18:13.509
00:26:15.449 : en:00:26:15.449
00:37:20.738 : en:00:37:20.738
00:44:30.418 : en:00:44:30.418
00:50:58.180 : en:00:50:58.180
01:04:10.930 : en:01:04:10.930
01:20:03.298 : en:01:20:03.298
01:24:46.039 : en:01:24:46.039
01:28:52.536 : en:01:28:52.536
01:39:41.267 : en:01:39:41.267
01:44:56.415 : en:01:44:56.415
01:56:24.269 : en:01:56:24.269
02:04:04.520 : en:02:04:04.520


Many Thanks to Original uploader.


For More Rare Movies Check out my blog!


Download Links :

No Mirrors Please