Channel 5 - Kensington Palace: Fit for a Princess (2018)

Posted By: notbanned
720p (HD) / HDTV
Channel 5 - Kensington Palace: Fit for a Princess (2018)

Channel 5 - Kensington Palace: Fit for a Princess (2018)
HDTV | 1280x720 | .MP4/AVC @ 3200 Kbps | 1 h 7 min | 1.59 GiB
Audio: English AAC 196 kbps, 2 channels | Subs: None
Genre: Documentary

Tucked away in London's Kensington Gardens, Kensington Palace has been a royal residence for 325 years. It is the royal family's most exclusive and private royal building, in effect a spectacular royal housing estate that is currently home to a number of royals, including the future head of the monarchy Prince William. The palace was where Queen Victoria was born and raised, where Hollywood A-listers partied with Princess Margaret, and where Princess Diana transformed into a world icon. As this documentary reveals, it is a building that has witnessed sadness, scandal and tragedy.

General
Complete name : Kensington.Palace.Fit.For.a.Princess.2018.720p.mp4
Format : MPEG-4
Format profile : Base Media
Codec ID : isom (isom/iso2/avc1/mp41)
File size : 1.59 GiB
Duration : 1 h 7 min
Overall bit rate : 3 393 kb/s

Video
ID : 1
Format : AVC
Format/Info : Advanced Video Codec
Format profile : High@L4
Format settings, CABAC : Yes
Format settings, ReFrames : 5 frames
Codec ID : avc1
Codec ID/Info : Advanced Video Coding
Duration : 1 h 7 min
Bit rate : 3 200 kb/s
Width : 1 280 pixels
Height : 720 pixels
Display aspect ratio : 16:9
Frame rate mode : Constant
Frame rate : 25.000 FPS
Color space : YUV
Chroma subsampling : 4:2:0
Bit depth : 8 bits
Scan type : Progressive
Bits/(Pixel*Frame) : 0.139
Stream size : 1.49 GiB (94%)
Writing library : x264 core 148 r2708 86b7198
Encoding settings : cabac=1 / ref=5 / deblock=1:0:0 / analyse=0x3:0x113 / me=umh / subme=8 / psy=1 / psy_rd=1.00:0.00 / mixed_ref=1 / me_range=16 / chroma_me=1 / trellis=1 / 8x8dct=1 / cqm=0 / deadzone=21,11 / fast_pskip=1 / chroma_qp_offset=-2 / threads=6 / lookahead_threads=1 / sliced_threads=0 / nr=0 / decimate=1 / interlaced=0 / bluray_compat=0 / constrained_intra=0 / bframes=3 / b_pyramid=2 / b_adapt=2 / b_bias=0 / direct=3 / weightb=1 / open_gop=0 / weightp=2 / keyint=250 / keyint_min=25 / scenecut=40 / intra_refresh=0 / rc_lookahead=50 / rc=abr / mbtree=1 / bitrate=3200 / ratetol=1.0 / qcomp=0.60 / qpmin=0 / qpmax=69 / qpstep=4 / vbv_maxrate=25000 / vbv_bufsize=31250 / nal_hrd=none / filler=0 / ip_ratio=1.40 / aq=1:1.00
Color range : Limited
Color primaries : BT.709
Transfer characteristics : BT.709
Matrix coefficients : BT.709

Audio
ID : 2
Format : AAC
Format/Info : Advanced Audio Codec
Format profile : LC
Codec ID : 40
Duration : 1 h 7 min
Bit rate mode : Constant
Bit rate : 196 kb/s
Channel(s) : 2 channels
Channel positions : Front: L R
Sampling rate : 48.0 kHz
Frame rate : 46.875 FPS (1024 spf)
Compression mode : Lossy
Stream size : 94.0 MiB (6%)
Default : Yes
Alternate group : 1


Screenshots:

Channel 5 - Kensington Palace: Fit for a Princess (2018)

Channel 5 - Kensington Palace: Fit for a Princess (2018)

Channel 5 - Kensington Palace: Fit for a Princess (2018)

Channel 5 - Kensington Palace: Fit for a Princess (2018)