King of New York (1990)

Posted By: Tavaz
SD / DVDRip IMDb
King of New York (1990)

King of New York (1990)
MKV | 720x576 | English | H264 @ 3229 kbps | AC-3 @ 576 kbps | 1 h 38 min | 2.68 GiB
Subtitles: Dutch
Genre: Crime, Thriller

A former drug lord returns from prison determined to wipe out all his competition and distribute the profits of his operations to New York's poor and lower classes in this stylish and ultra violent modern twist on Robin Hood.

rename.with.this.par2 (49.2 KB)
King of New-York.mkv (2.7 GB)



General
Unique ID : 148759778764631189931164222735589344951 (0x6FEA175BC9B48196B9B6E76D0EA486B7)
Complete name : ./King of New-York.mkv
Format : Matroska
Format version : Version 4 / Version 2
File size : 2.68 GiB
Duration : 1 h 38 min
Overall bit rate mode : Variable
Overall bit rate : 3 883 kb/s
Writing application : Lavf56.30.100
Writing library : Lavf56.30.100
LABEL : Chapter 12
Language : eng
TCHAPTER : 153829984

Video
ID : 1
Format : AVC
Format/Info : Advanced Video Codec
Format profile : High@L3
Format settings : CABAC / 2 Ref Frames
Format settings, CABAC : Yes
Format settings, RefFrames : 2 frames
Codec ID : V_MPEG4/ISO/AVC
Duration : 1 h 38 min
Bit rate mode : Variable
Bit rate : 3 230 kb/s
Maximum bit rate : 3 960 kb/s
Width : 720 pixels
Height : 576 pixels
Display aspect ratio : 16:9
Frame rate mode : Constant
Frame rate : 25.000 FPS
Standard : PAL
Color space : YUV
Chroma subsampling : 4:2:0
Bit depth : 8 bits
Scan type : Progressive
Bits/(Pixel*Frame) : 0.312
Stream size : 2.23 GiB (83%)
Title : h264_cuda 720x576 16/9
Default : Yes
Forced : No
Track/Position : 0

Audio
ID : 2
Format : AC-3
Format/Info : Audio Coding 3
Format settings, Endianness : Big
Codec ID : A_AC3
Duration : 1 h 38 min
Bit rate mode : Constant
Bit rate : 576 kb/s
Channel(s) : 6 channels
Channel positions : Front: L C R, Side: L R, LFE
Sampling rate : 48.0 kHz
Frame rate : 31.250 FPS (1536 SPF)
Bit depth : 16 bits
Compression mode : Lossy
Stream size : 408 MiB (15%)
Title : ac3 48000Hz 6Ch.
Language : English
Service kind : Complete Main
Default : Yes
Forced : No
Track/Position : 1

Text
ID : 3
Format : VobSub
Codec ID : S_VOBSUB
Codec ID/Info : Picture based subtitle format used on DVDs
Title : dvd_subtitle 720x576
Language : Dutch
Default : Yes
Forced : No
Track/Position : 2

Menu
00:00:00.000 : :Chapter 1
00:08:01.079 : :Chapter 2
00:17:41.279 : :Chapter 3
00:22:44.400 : :Chapter 4
00:32:29.160 : :Chapter 5
00:39:00.119 : :Chapter 6
00:47:45.360 : :Chapter 7
00:58:30.000 : :Chapter 8
01:04:39.480 : :Chapter 9
01:17:11.279 : :Chapter 10
01:26:26.399 : :Chapter 11
01:32:56.039 : :Chapter 12





King of New York (1990)


King of New York (1990)


King of New York (1990)


King of New York (1990)


King of New York (1990)