Krakatoa: East of Java (1968)

Posted By: Without
1080p (FullHD) / BDRip IMDb
Krakatoa: East of Java (1968)

Krakatoa: East of Java (1968)
BDRip 720p | MKV | 1280x544 | AVC@4369 kb/s | English FLAC@372 kb/s
2 channels | 2 h 11 min | 4.36 GB
BDRip 1080p | MKV | 1920x824 | AVC@8253 kb/s | English FLAC@372 kb/s
2 channels | 2 h 11 min | 7.94 GB
Genre: Adventure, Drama, History

In 1883, ship captain Hanson plans a shipwreck salvage mission in The Dutch East Indies to retrieve a cargo of pearls but an unexpected volcano eruption and a state-ordered transport of convicts upset his plans.

IMDB - Nominated for 1 Oscar.


General
Krakatoa.East.of.Java.1968.720p.BluRay.x264-SADPANDA.mkv
Format : Matroska
Format version : Version 4 / Version 2
File size : 4.36 GiB
Duration : 2 h 11 min
Overall bit rate mode : Variable
Overall bit rate : 4 743 kb/s
Encoded date : UTC 2018-03-31 16:47:13
Writing application : mkvmerge v19.0.0 ('Brave Captain') 64-bit
Writing library : libebml v1.3.5 + libmatroska v1.4.8

Video
ID : 1
Format : AVC
Format/Info : Advanced Video Codec
Format profile : High@L4.1
Format settings, CABAC : Yes
Format settings, ReFrames : 5 frames
Codec ID : V_MPEG4/ISO/AVC
Duration : 2 h 11 min
Bit rate : 4 369 kb/s
Width : 1 280 pixels
Height : 544 pixels
Display aspect ratio : 2.35:1
Frame rate mode : Constant
Frame rate : 23.976 (24000/1001) FPS
Color space : YUV
Chroma subsampling : 4:2:0
Bit depth : 8 bits
Scan type : Progressive
Bits/(Pixel*Frame) : 0.262
Stream size : 4.02 GiB (92%)
Writing library : x264 core 155 r2901 7d0ff22
Encoding settings : cabac=1 / ref=5 / deblock=1:-3:-3 / analyse=0x3:0x113 / me=umh / subme=8 / psy=1 / psy_rd=1.00:0.25 / mixed_ref=1 / me_range=24 / chroma_me=1 / trellis=1 / 8x8dct=1 / cqm=0 / deadzone=21,11 / fast_pskip=1 / chroma_qp_offset=-4 / threads=17 / lookahead_threads=2 / sliced_threads=0 / nr=0 / decimate=1 / interlaced=0 / bluray_compat=0 / constrained_intra=0 / bframes=3 / b_pyramid=2 / b_adapt=1 / b_bias=0 / direct=3 / weightb=1 / open_gop=0 / weightp=2 / keyint=240 / keyint_min=24 / scenecut=40 / intra_refresh=0 / rc_lookahead=50 / rc=2pass / mbtree=1 / bitrate=4369 / ratetol=1.0 / qcomp=0.60 / qpmin=0 / qpmax=69 / qpstep=4 / cplxblur=20.0 / qblur=0.5 / ip_ratio=1.40 / aq=1:0.75
Default : Yes
Forced : No

Audio
ID : 2
Format : FLAC
Format/Info : Free Lossless Audio Codec
Codec ID : A_FLAC
Duration : 2 h 11 min
Bit rate mode : Variable
Bit rate : 372 kb/s
Channel(s) : 2 channels
Channel positions : Front: L R
Sampling rate : 48.0 kHz
Frame rate : 11.719 FPS (4096 spf)
Bit depth : 16 bits
Stream size : 351 MiB (8%)
Writing library : libFLAC 1.2.1 (UTC 2007-09-17)
Language : English
Default : Yes
Forced : No

Menu
00:00:00.000 : en:00:00:00.000
00:17:21.707 : en:00:17:21.707
00:31:21.171 : en:00:31:21.171
00:47:41.901 : en:00:47:41.901
01:04:33.787 : en:01:04:33.787
01:23:56.448 : en:01:23:56.448
01:43:25.866 : en:01:43:25.866
01:56:53.798 : en:01:56:53.798

General
Krakatoa.East.of.Java.1968.1080p.BluRay.x264-SADPANDA.mkv
Format : Matroska
Format version : Version 4 / Version 2
File size : 7.94 GiB
Duration : 2 h 11 min
Overall bit rate mode : Variable
Overall bit rate : 8 627 kb/s
Encoded date : UTC 2018-03-31 17:12:19
Writing application : mkvmerge v19.0.0 ('Brave Captain') 64-bit
Writing library : libebml v1.3.5 + libmatroska v1.4.8

Video
ID : 1
Format : AVC
Format/Info : Advanced Video Codec
Format profile : High@L4.1
Format settings, CABAC : Yes
Format settings, ReFrames : 5 frames
Codec ID : V_MPEG4/ISO/AVC
Duration : 2 h 11 min
Bit rate : 8 253 kb/s
Width : 1 920 pixels
Height : 824 pixels
Display aspect ratio : 2.35:1
Frame rate mode : Constant
Frame rate : 23.976 (24000/1001) FPS
Color space : YUV
Chroma subsampling : 4:2:0
Bit depth : 8 bits
Scan type : Progressive
Bits/(Pixel*Frame) : 0.218
Stream size : 7.59 GiB (96%)
Writing library : x264 core 155 r2901 7d0ff22
Encoding settings : cabac=1 / ref=5 / deblock=1:-3:-3 / analyse=0x3:0x113 / me=umh / subme=8 / psy=1 / psy_rd=1.00:0.25 / mixed_ref=1 / me_range=24 / chroma_me=1 / trellis=1 / 8x8dct=1 / cqm=0 / deadzone=21,11 / fast_pskip=1 / chroma_qp_offset=-4 / threads=26 / lookahead_threads=4 / sliced_threads=0 / nr=0 / decimate=1 / interlaced=0 / bluray_compat=0 / constrained_intra=0 / bframes=3 / b_pyramid=2 / b_adapt=1 / b_bias=0 / direct=3 / weightb=1 / open_gop=0 / weightp=2 / keyint=240 / keyint_min=24 / scenecut=40 / intra_refresh=0 / rc_lookahead=50 / rc=2pass / mbtree=1 / bitrate=8253 / ratetol=1.0 / qcomp=0.60 / qpmin=0 / qpmax=69 / qpstep=4 / cplxblur=20.0 / qblur=0.5 / ip_ratio=1.40 / aq=1:0.75
Default : Yes
Forced : No

Audio
ID : 2
Format : FLAC
Format/Info : Free Lossless Audio Codec
Codec ID : A_FLAC
Duration : 2 h 11 min
Bit rate mode : Variable
Bit rate : 372 kb/s
Channel(s) : 2 channels
Channel positions : Front: L R
Sampling rate : 48.0 kHz
Frame rate : 11.719 FPS (4096 spf)
Bit depth : 16 bits
Stream size : 351 MiB (4%)
Writing library : libFLAC 1.2.1 (UTC 2007-09-17)
Language : English
Default : Yes
Forced : No

Menu
00:00:00.000 : en:00:00:00.000
00:17:21.707 : en:00:17:21.707
00:31:21.171 : en:00:31:21.171
00:47:41.901 : en:00:47:41.901
01:04:33.787 : en:01:04:33.787
01:23:56.448 : en:01:23:56.448
01:43:25.866 : en:01:43:25.866
01:56:53.798 : en:01:56:53.798


BDRip 720p Screenshots

Krakatoa: East of Java (1968)

Krakatoa: East of Java (1968)

Krakatoa: East of Java (1968)


BDRip 1080p Screenshots

Krakatoa: East of Java (1968)

Krakatoa: East of Java (1968)

Krakatoa: East of Java (1968)


Come Visit My Blog (•‿•)