LEGO DC Comics Super Heroes: Justice League: Attack of the Legion of Doom! (2015)

Posted By: Tavaz
1080p (FullHD) / BDRip IMDb
LEGO DC Comics Super Heroes: Justice League: Attack of the Legion of Doom! (2015)

LEGO DC Comics Super Heroes: Justice League: Attack of the Legion of Doom! (2015)
BDRip | MKV | 1920x1080 | English | H264 @ 7774 kbps | DTS @ 1509 kbps | 1 h 17 min | 5.00 GiB
Subtitles: English
Genre: Action, Adventure, Animation, Family

Crime is on the run as the newly formed Justice League keeps Metropolis safe and this makes evil genius Lex Luthor very unhappy. Together with Black Manta, Sinestro and a gang of ruthless recruits, Lex builds his own league and declares them the Legion of Doom. With this super powered team of terror and a plan to attack the top-secret government site, Area 52, can Lex finally be on the verge of victory? Sound the alarm and get ready for the bricks to fly when Superman, Batman, Wonder Woman and the rest of the Justice League face off against the world's greatest Super-Villains! It's the next all-new original movie from LEGO® and DC Comics.

3179fe4e779a432f91b6914ed5d88bf0.mkv (5.0 GB)



General
Unique ID : 106156271999816521880973309548012050794 (0x4FDCF44D31D20CFCEC2569F24D21196A)
Complete name : ./3179fe4e779a432f91b6914ed5d88bf0.mkv
Format : Matroska
Format version : Version 4 / Version 2
File size : 5.00 GiB
Duration : 1 h 17 min
Overall bit rate : 9 286 kb/s
Encoded date : UTC 2018-04-09 14:36:23
Writing application : mkvmerge v22.0.0 ('At The End Of The World') 64-bit
Writing library : libebml v1.3.5 + libmatroska v1.4.8

Video
ID : 1
Format : AVC
Format/Info : Advanced Video Codec
Format profile : High@L4.1
Format settings : CABAC / 3 Ref Frames
Format settings, CABAC : Yes
Format settings, RefFrames : 3 frames
Codec ID : V_MPEG4/ISO/AVC
Duration : 1 h 17 min
Bit rate : 7 774 kb/s
Width : 1 920 pixels
Height : 1 080 pixels
Display aspect ratio : 16:9
Frame rate mode : Constant
Frame rate : 23.976 (24000/1001) FPS
Color space : YUV
Chroma subsampling : 4:2:0
Bit depth : 8 bits
Scan type : Progressive
Bits/(Pixel*Frame) : 0.156
Stream size : 4.18 GiB (84%)
Title : PRoDJi
Writing library : x264 core 155 r2901 7d0ff22
Encoding settings : cabac=1 / ref=3 / deblock=1:0:0 / analyse=0x3:0x113 / me=umh / subme=7 / psy=1 / psy_rd=1.00:0.00 / mixed_ref=1 / me_range=24 / chroma_me=1 / trellis=2 / 8x8dct=1 / cqm=2 / deadzone=21,11 / fast_pskip=1 / chroma_qp_offset=-5 / threads=12 / lookahead_threads=2 / sliced_threads=0 / nr=0 / decimate=1 / interlaced=0 / bluray_compat=0 / constrained_intra=0 / bframes=3 / b_pyramid=1 / b_adapt=2 / b_bias=2 / direct=3 / weightb=1 / open_gop=0 / weightp=2 / keyint=230 / keyint_min=22 / scenecut=40 / intra_refresh=0 / rc_lookahead=40 / rc=2pass / mbtree=1 / bitrate=7774 / ratetol=1.0 / qcomp=0.60 / qpmin=10 / qpmax=41 / qpstep=4 / cplxblur=20.0 / qblur=0.5 / ip_ratio=1.40 / aq=1:1.00
Language : English
Default : Yes
Forced : No

Audio
ID : 2
Format : DTS
Format/Info : Digital Theater Systems
Mode : 16
Format settings, Endianness : Big
Codec ID : A_DTS
Duration : 1 h 17 min
Bit rate mode : Constant
Bit rate : 1 509 kb/s
Channel(s) : 6 channels
Channel positions : Front: L C R, Side: L R, LFE
Sampling rate : 48.0 kHz
Frame rate : 93.750 FPS (512 SPF)
Bit depth : 24 bits
Compression mode : Lossy
Stream size : 831 MiB (16%)
Title : English DTS@1509Kbps 6 chnls
Language : English
Default : Yes
Forced : No

Text
ID : 3
Format : UTF-8
Codec ID : S_TEXT/UTF8
Codec ID/Info : UTF-8 Plain Text
Duration : 1 h 13 min
Bit rate : 65 b/s
Count of elements : 1003
Stream size : 35.7 KiB (0%)
Language : English
Default : Yes
Forced : No

Menu
00:00:00.000 : en:Chapter 1
00:11:16.342 : en:Chapter 2
00:18:48.919 : en:Chapter 3
00:29:12.125 : en:Chapter 4
00:37:33.084 : en:Chapter 5
00:50:00.455 : en:Chapter 6
00:59:02.956 : en:Chapter 7
01:09:21.115 : en:Chapter 8
01:14:02.938 : en:Chapter 9





LEGO DC Comics Super Heroes: Justice League: Attack of the Legion of Doom! (2015)


LEGO DC Comics Super Heroes: Justice League: Attack of the Legion of Doom! (2015)


LEGO DC Comics Super Heroes: Justice League: Attack of the Legion of Doom! (2015)


LEGO DC Comics Super Heroes: Justice League: Attack of the Legion of Doom! (2015)


LEGO DC Comics Super Heroes: Justice League: Attack of the Legion of Doom! (2015)