Please register here if you want to download anything!

If domain in your address bar is different from the list below
PLEASE LEAVE THAT SITE IMMEDIATELY
❗IT'S A DANGEROUS FAKE❗



Spicy Magazines for Men! ;-)

La Vie de Bohème (1992)

Posted By: Tavaz
1080p (FullHD) / BDRip IMDb
La Vie de Bohème (1992)

La Vie de Bohème (1992)
BDRip | MKV | 1920x1040 | French | H265 @ 14990 kbps | Opus @ 157 kbps | 1 h 42 min | 10.9 GiB
Subtitles: English
Genre: Comedy, Drama, Romance

Adaptation contemporaine du celebre roman de Murger qui evoque les grandeurs et les miseres de la vie de boheme.

La.Vie.de.Bohme.1992.BluRay.1080p.OPUS.1.0.x265-m3th=7c68f50c8c4479d3743f239d2955894ae63b0881.part1.rar (5.7 GB)
La.Vie.de.Bohme.1992.BluRay.1080p.OPUS.1.0.x265-m3th=7c68f50c8c4479d3743f239d2955894ae63b0881.part2.rar (5.3 GB)



General
Complete name : ./7dda9852389b430480c850c119acae78.mkv
Format : Matroska
Format version : Version 4 / Version 2
File size : 10.9 GiB
Duration : 1 h 42 min
Overall bit rate : 15.2 Mb/s
Encoded date : UTC 2018-09-28 09:24:19
Writing application : mkvmerge v25.0.0 ('Prog Noir') 64-bit
Writing library : libebml v1.3.6 + libmatroska v1.4.9

Video
ID : 1
Format : HEVC
Format/Info : High Efficiency Video Coding
Format profile : Main 10@L4@Main
Codec ID : V_MPEGH/ISO/HEVC
Duration : 1 h 42 min
Bit rate : 15.0 Mb/s
Width : 1 920 pixels
Height : 1 040 pixels
Display aspect ratio : 1.85:1
Frame rate mode : Constant
Frame rate : 23.976 (24000/1001) FPS
Color space : YUV
Chroma subsampling : 4:2:0
Bit depth : 10 bits
Bits/(Pixel*Frame) : 0.313
Stream size : 10.8 GiB (99%)
Writing library : x265 2.8+66-88ee12651e30:[Windows][GCC 6.3.0][64 bit] 10bit
Encoding settings : cpuid=1111039 / frame-threads=3 / numa-pools=12 / wpp / no-pmode / no-pme / no-psnr / no-ssim / log-level=2 / input-csp=1 / input-res=1920x1040 / interlace=0 / total-frames=148167 / level-idc=0 / high-tier=1 / uhd-bd=0 / ref=2 / no-allow-non-conformance / no-repeat-headers / annexb / no-aud / no-hrd / info / hash=0 / no-temporal-layers / open-gop / min-keyint=32 / keyint=250 / gop-lookahead=0 / bframes=4 / b-adapt=0 / b-pyramid / bframe-bias=0 / rc-lookahead=15 / lookahead-slices=6 / scenecut=40 / radl=0 / no-intra-refresh / ctu=32 / min-cu-size=8 / no-rect / no-amp / max-tu-size=32 / tu-inter-depth=1 / tu-intra-depth=1 / limit-tu=0 / rdoq-level=0 / dynamic-rd=0.00 / no-ssim-rd / signhide / no-tskip / nr-intra=0 / nr-inter=0 / no-constrained-intra / strong-intra-smoothing / max-merge=2 / limit-refs=3 / no-limit-modes / me=1 / subme=1 / merange=57 / temporal-mvp / weightp / weightb / no-analyze-src-pics / deblock=0:0 / sao / no-sao-non-deblock / rd=2 / early-skip / no-rskip / fast-intra / no-tskip-fast / no-cu-lossless / no-b-intra / no-splitrd-skip / rdpenalty=0 / psy-rd=2.00 / psy-rdoq=0.00 / no-rd-refine / no-lossless / cbqpoffs=0 / crqpoffs=0 / rc=crf / crf=20.0 / qcomp=0.60 / qpstep=4 / stats-write=0 / stats-read=0 / ipratio=1.40 / pbratio=1.30 / aq-mode=1 / aq-strength=0.00 / cutree / zone-count=0 / no-strict-cbr / qg-size=32 / rc-grain / qpmax=51 / qpmin=0 / const-vbv / sar=0 / overscan=0 / videoformat=5 / range=0 / colorprim=1 / transfer=1 / colormatrix=1 / chromaloc=0 / display-window=0 / max-cll=0,0 / min-luma=0 / max-luma=1023 / log2-max-poc-lsb=8 / vui-timing-info / vui-hrd-info / slices=1 / no-opt-qp-pps / no-opt-ref-list-length-pps / no-multi-pass-opt-rps / scenecut-bias=0.05 / no-opt-cu-delta-qp / no-aq-motion / no-hdr / no-hdr-opt / no-dhdr10-opt / no-idr-recovery-sei / analysis-reuse-level=5 / scale-factor=0 / refine-intra=0 / refine-inter=0 / refine-mv=0 / no-limit-sao / ctu-info=0 / no-lowpass-dct / refine-mv-type=0 / copy-pic=1 / max-ausize-factor=1.0 / no-dynamic-refine / no-single-sei
Default : Yes
Forced : No
Color range : Limited
Color primaries : BT.709
Transfer characteristics : BT.709
Matrix coefficients : BT.709

Audio
ID : 2
Format : Opus
Codec ID : A_OPUS
Duration : 1 h 42 min
Bit rate : 158 kb/s
Channel(s) : 1 channel
Channel positions : Front: C
Sampling rate : 48.0 kHz
Frame rate : 50.000 FPS (960 SPF)
Compression mode : Lossy
Stream size : 116 MiB (1%)
Language : French
Default : Yes
Forced : No

Text
ID : 3
Format : PGS
Muxing mode : zlib
Codec ID : S_HDMV/PGS
Codec ID/Info : Picture based subtitle format used on BDs/HD-DVDs
Duration : 1 h 38 min
Bit rate : 30.5 kb/s
Count of elements : 1720
Stream size : 21.5 MiB (0%)
Language : English
Default : Yes
Forced : No

Menu
00:00:00.000 : en:Opening credits
00:02:40.452 : en:The Avenger, a play in twenty-one acts
00:04:30.979 : en:Eviction notice
00:08:39.102 : en:The new tenant
00:11:10.670 : en:“Two half orders of trout”
00:14:04.177 : en:Lodgings and furniture
00:17:54.824 : en:Out of paint
00:23:02.381 : en:“I think I have fallen in love”
00:28:22.117 : en:A client in a black jacket
00:33:53.907 : en:Advance payments
00:38:15.001 : en:Mimi
00:42:14.949 : en:“Do you have any money?”
00:47:54.455 : en:Deportation
00:53:43.804 : en:Spring
00:57:35.577 : en:Return
01:00:41.388 : en:“When is Mimi in?”
01:02:52.560 : en:A sale
01:08:40.908 : en:People on Sunday
01:11:03.468 : en:Money troubles
01:12:56.372 : en:Musette’s decision
01:18:36.253 : en:Mimi’s walk
01:23:34.301 : en:Autumn
01:24:43.996 : en:All Saints’ Day feast
01:26:15.170 : en:Mimi returns
01:33:09.375 : en:“Why don’t you pick me some flowers?”
01:40:15.593 : en:End credits





La Vie de Bohème (1992)


La Vie de Bohème (1992)


La Vie de Bohème (1992)


La Vie de Bohème (1992)


La Vie de Bohème (1992)