La foresta di ghiaccio (2014)

Posted By: Rare-1
La foresta di ghiaccio (2014)

La foresta di ghiaccio (2014)
DVDRip | AVI | 720 x 304 | XviD @ 1568 Kbps | 103 min | 1.46 Gb
Audio: Italian AC3 5.1 @ 448 Kbps | Subs: English (idx/sub)
Genre: Thriller | Italy

In the harsh snowy landscape of the Italian Alps, a young technician arrives to repair an electric power plant of a village plagued by blackouts. There, he encounters a strange disappearance.

IMDB 6.0/10 from 32 users

Director: Claudio Noce
Writer: Francesca Manieri, Elisa Amoruso, Claudio Noce
Actors: Emir Kusturica, Adriano Giannini, Kseniya Rappoport, Domenico Diele
Rated: N/A
Runtime: 103 min

La foresta di ghiaccio (2014)

La foresta di ghiaccio (2014)

La foresta di ghiaccio (2014)

La foresta di ghiaccio (2014)


La foresta di ghiaccio (2014)


More Screenshots:

La foresta di ghiaccio (2014)



General
Complete name : G:\LA Foresta di Ghiaccio\LA Foresta di Ghiaccio.avi
Format : AVI
Format/Info : Audio Video Interleave
File size : 1.46 GiB
Duration : 1h 43mn
Overall bit rate : 2 025 Kbps
Writing application : VirtualDubMod 1.5.10.3 | www.virtualdub-fr.org || (build 2550/release)
Writing library : VirtualDubMod build 2550/release

Video
ID : 0
Format : MPEG-4 Visual
Format profile : Advanced Simple@L5
Format settings, BVOP : 1
Format settings, QPel : No
Format settings, GMC : No warppoints
Format settings, Matrix : Default (MPEG)
Codec ID : XVID
Codec ID/Hint : XviD
Duration : 1h 43mn
Bit rate : 1 568 Kbps
Width : 720 pixels
Height : 304 pixels
Display aspect ratio : 2.35:1
Frame rate : 25.000 fps
Color space : YUV
Chroma subsampling : 4:2:0
Bit depth : 8 bits
Scan type : Progressive
Compression mode : Lossy
Bits/(Pixel*Frame) : 0.286
Stream size : 1.13 GiB (77%)
Writing library : XviD 1.2.1 (UTC 2008-12-04)

Audio
ID : 1
Format : AC-3
Format/Info : Audio Coding 3
Mode extension : CM (complete main)
Format settings, Endianness : Big
Codec ID : 2000
Duration : 1h 43mn
Bit rate mode : Constant
Bit rate : 448 Kbps
Channel(s) : 6 channels
Channel positions : Front: L C R, Side: L R, LFE
Sampling rate : 48.0 KHz
Bit depth : 16 bits
Compression mode : Lossy
Stream size : 331 MiB (22%)
Alignment : Split accross interleaves
Interleave, duration : 40 ms (1.00 video frame)
Interleave, preload duration : 500 ms




Many Thanks to Original uploader.


For More Rare Movies Check out my blog!


Download Links :

No Mirrors Please