La noche que mi madre mató a mi padre (2016)

Posted By: Without
La noche que mi madre mató a mi padre (2016)

La noche que mi madre mató a mi padre (2016)
BDRip | MKV | 720x300 | AVC@844 Kbps | Spanish AAC@126 Kbps
Subs: English | 2 channels | 1h 34mn | 655 MB
Genre: Comedy

An actress ready for anything to recover her former glory. A crazy night where all is possible.



General
Unique ID : 241200611545755474912972918145632058588 (0xB5758C4C38B6E4A39D9236BB156E3CDC)
Complete name : J:\The.Night.My.Mother.Killed.My.Father.2016.BDRip.x264-BiPOLAR[rarbg]\the.night.my.mother.killed.my.father.2016.bdrip.x264-bipolar.mkv
Format : Matroska
Format version : Version 4 / Version 2
File size : 655 MiB
Duration : 1h 34mn
Overall bit rate : 973 Kbps
Encoded date : UTC 2016-09-02 11:13:03
Writing application : mkvmerge v8.3.0 ('Over the Horizon') 64bit
Writing library : libebml v1.3.1 + libmatroska v1.4.2

Video
ID : 1
Format : AVC
Format/Info : Advanced Video Codec
Format profile : High@L3.1
Format settings, CABAC : Yes
Format settings, ReFrames : 5 frames
Codec ID : V_MPEG4/ISO/AVC
Duration : 1h 34mn
Bit rate : 844 Kbps
Width : 720 pixels
Height : 300 pixels
Display aspect ratio : 2.40:1
Frame rate mode : Constant
Frame rate : 24.000 fps
Color space : YUV
Chroma subsampling : 4:2:0
Bit depth : 8 bits
Scan type : Progressive
Bits/(Pixel*Frame) : 0.163
Stream size : 569 MiB (87%)
Writing library : x264 core 148 r2705 3f5ed56
Encoding settings : cabac=1 / ref=5 / deblock=1:-1:-1 / analyse=0x3:0x113 / me=umh / subme=8 / psy=1 / psy_rd=1.00:0.15 / mixed_ref=1 / me_range=16 / chroma_me=1 / trellis=1 / 8x8dct=1 / cqm=0 / deadzone=21,11 / fast_pskip=1 / chroma_qp_offset=-3 / threads=9 / lookahead_threads=1 / sliced_threads=0 / nr=0 / decimate=1 / interlaced=0 / bluray_compat=0 / constrained_intra=0 / bframes=3 / b_pyramid=2 / b_adapt=2 / b_bias=0 / direct=3 / weightb=1 / open_gop=0 / weightp=2 / keyint=250 / keyint_min=23 / scenecut=40 / intra_refresh=0 / rc_lookahead=50 / rc=crf / mbtree=1 / crf=19.0 / qcomp=0.60 / qpmin=0 / qpmax=69 / qpstep=4 / ip_ratio=1.40 / aq=1:1.00
Language : English
Default : Yes
Forced : No
Color range : Limited
Matrix coefficients : BT.709

Audio
ID : 2
Format : AAC
Format/Info : Advanced Audio Codec
Format profile : LC
Codec ID : A_AAC
Duration : 1h 34mn
Bit rate : 126 Kbps
Channel(s) : 2 channels
Channel positions : Front: L R
Sampling rate : 48.0 KHz
Frame rate : 46.875 fps (1024 spf)
Compression mode : Lossy
Delay relative to video : 9ms
Stream size : 85.0 MiB (13%)
Language : Spanish
Default : Yes
Forced : No

Text
ID : 3
Format : UTF-8
Codec ID : S_TEXT/UTF8
Codec ID/Info : UTF-8 Plain Text
Duration : 1h 29mn
Bit rate : 67 bps
Count of elements : 1492
Stream size : 44.3 KiB (0%)
Title : forced
Language : English
Default : Yes
Forced : Yes

Menu
00:00:00.000 : en:00:00:00.000
00:14:49.542 : en:00:14:49.542
00:26:33.417 : en:00:26:33.417
00:37:09.333 : en:00:37:09.333
00:45:40.625 : en:00:45:40.625
00:58:40.417 : en:00:58:40.417
01:11:21.833 : en:01:11:21.833
01:22:56.458 : en:01:22:56.458


BDRip Screenshots

La noche que mi madre mató a mi padre (2016)

La noche que mi madre mató a mi padre (2016)

La noche que mi madre mató a mi padre (2016)


Come Visit My Blog (•‿•)