Tags
Language
Tags

Le jeune Ahmed / Young Ahmed (2019)

Posted By: JohnSmith
1080p (FullHD) / WEB-DL IMDb
Le jeune Ahmed / Young Ahmed (2019)

Le jeune Ahmed / Young Ahmed (2019)
WEB-DL 1080p | MKV / AVC@5110 kb/s | 1912x1036 | 1h 24mn | Français (VFi): AC3, 384 kb/s (6 ch) | 3.23 GB
Genre: Drama

En Belgique, aujourd’hui, le destin du Jeune Ahmed, 13 ans, pris entre les idéaux de pureté de son imam et les appels de la vie.


General
Unique ID : 8227159984148259175801453991935339120 (0x6307E4DF5BB83B50032E4810A5BEA70)
Complete name : C:\Le.Jeune.Ahmed.2019.FRENCH.1080p.WEB.mkv
Format : Matroska
Format version : Version 4
File size : 3.23 GiB
Duration : 1 h 24 min
Overall bit rate : 5 496 kb/s
Movie name : Le jeune Ahmed (2019) - PREUMS
Encoded date : UTC 2019-10-05 06:17:41
Writing application : mkvmerge v36.0.0 ('Is That Jazz?') 64-bit
Writing library : libebml v1.3.9 + libmatroska v1.5.2

Video
ID : 1
Format : AVC
Format/Info : Advanced Video Codec
Format profile : High@L4
Format settings : CABAC / 4 Ref Frames
Format settings, CABAC : Yes
Format settings, Reference : 4 frames
Codec ID : V_MPEG4/ISO/AVC
Duration : 1 h 24 min
Bit rate : 5 110 kb/s
Width : 1 912 pixels
Height : 1 036 pixels
Display aspect ratio : 1.85:1
Frame rate mode : Constant
Frame rate : 24.000 FPS
Color space : YUV
Chroma subsampling : 4:2:0
Bit depth : 8 bits
Scan type : Progressive
Bits/(Pixel*Frame) : 0.107
Stream size : 3.00 GiB (93%)
Title : PREUMS
Language : French
Default : Yes
Forced : No
Color range : Limited
Color primaries : BT.709
Transfer characteristics : BT.709
Matrix coefficients : BT.709

Audio
ID : 2
Format : AC-3
Format/Info : Audio Coding 3
Commercial name : Dolby Digital
Codec ID : A_AC3
Duration : 1 h 24 min
Bit rate mode : Constant
Bit rate : 384 kb/s
Channel(s) : 6 channels
Channel layout : L R C LFE Ls Rs
Sampling rate : 48.0 kHz
Frame rate : 31.250 FPS (1536 SPF)
Bit depth : 16 bits
Compression mode : Lossy
Stream size : 231 MiB (7%)
Title : French 5.1
Language : French
Service kind : Complete Main
Default : Yes
Forced : No

Menu
00:00:00.000 : en:Chapitre 01
00:08:00.000 : en:Chapitre 02
00:16:00.000 : en:Chapitre 03
00:24:00.000 : en:Chapitre 04
00:32:00.000 : en:Chapitre 05
00:40:00.000 : en:Chapitre 06
00:48:00.000 : en:Chapitre 07
00:56:00.000 : en:Chapitre 08
01:04:00.000 : en:Chapitre 09
01:12:00.000 : en:Chapitre 10




Screenshots

Le jeune Ahmed / Young Ahmed (2019)

Le jeune Ahmed / Young Ahmed (2019)

Le jeune Ahmed / Young Ahmed (2019)