Tags
Language
Tags

Smithsonain Ch. - Legends of the Pharaohs: Series 1 (2020)

Posted By: Tutorial
1080p (FullHD) / HDTV
Smithsonain Ch. - Legends of the Pharaohs: Series 1 (2020)

Smithsonain Ch. - Legends of the Pharaohs: Series 1 (2020)
HDTV | 1920 x 1080 | .MP4/AVC @ 4560 Kbps | 2x~44mn | 2.90 GB
Audio: English AAC 160 Kbps, 2 channels | Subs: English
Genre: Documentary

Legends of the Pharaohs brings to life Egypt’s great pyramid builders and traces one remarkable century of epic construction at Giza. The new UK premiere series shines a light on the personal stories of individuals who took part in the construction of the pyramids and the Great Sphinx. Experts and historians explore the birth of these ancient wonders through the eyes of the architects, stone cutters, soldiers and farmers who toiled to fulfil the pharaohs’ visions

Part 1: Egypt’s First Pyramid
Ancient Egypt, 4700 years ago. Revolution is brewing - and the most ambitious building project on the planet sets off a chain of transformative events


Part 2: Curse of the Pyramids
Head back to Ancient Egypt to explore more legends. Now, the pyramid age has begun and a new pharaoh, Snefru, has ascended to the throne

General
Complete name : Legends.of.the.Pharaohs.Series.1.Part.1.Egypts.First.Pyramid.mp4
Format : MPEG-4
Format profile : Base Media
Codec ID : isom (isom)
File size : 1.45 GiB
Duration : 44 min 0 s
Overall bit rate mode : Variable
Overall bit rate : 4 723 kb/s
Encoded date : UTC 2021-02-24 21:00:33
Tagged date : UTC 2021-02-24 21:00:33

Video
ID : 1
Format : AVC
Format/Info : Advanced Video Codec
Format profile : High@L4.1
Format settings : 1 Ref Frames
Format settings, CABAC : No
Format settings, Reference frames : 1 frame
Format settings, GOP : M=1, N=12
Codec ID : avc1
Codec ID/Info : Advanced Video Coding
Duration : 44 min 0 s
Bit rate : 4 560 kb/s
Maximum bit rate : 11.5 Mb/s
Width : 1 920 pixels
Height : 1 080 pixels
Display aspect ratio : 16:9
Frame rate mode : Constant
Frame rate : 25.000 FPS
Color space : YUV
Chroma subsampling : 4:2:0
Bit depth : 8 bits
Scan type : Progressive
Bits/(Pixel*Frame) : 0.088
Stream size : 1.40 GiB (97%)
Title : Legends.of.the.Pharaohs.Series.1.Part.1.Egypts.First.Pyramid.1080p.HDTV.x264.AAC..org.mp4
Language : English
Encoded date : UTC 2021-02-24 18:54:38
Tagged date : UTC 2021-02-24 21:01:34
Codec configuration box : avcC

Audio
ID : 2
Format : AAC LC
Format/Info : Advanced Audio Codec Low Complexity
Codec ID : mp4a-40-2
Duration : 44 min 0 s
Bit rate mode : Variable
Bit rate : 160 kb/s
Maximum bit rate : 207 kb/s
Channel(s) : 2 channels
Channel layout : L R
Sampling rate : 48.0 kHz
Frame rate : 46.875 FPS (1024 SPF)
Compression mode : Lossy
Stream size : 50.4 MiB (3%)
Title : Legends.of.the.Pharaohs.Series.1.Part.1.Egypts.First.Pyramid.1080p.HDTV.x264.AAC..org.mp4
Language : English
Encoded date : UTC 2021-02-24 21:01:10
Tagged date : UTC 2021-02-24 21:01:34

Text
ID : 3
Format : Timed Text
Codec ID : tx3g
Duration : 43 min 58 s
Bit rate mode : Variable
Bit rate : 119 b/s
Stream size : 38.2 KiB (0%)
Title : Legends.of.the.Pharaohs.Series.1.Part.1.Egypts.First.Pyramid.1080p.HDTV.x264.AAC..org.srt
Forced : No
Encoded date : UTC 2021-02-24 21:01:33
Tagged date : UTC 2021-02-24 21:01:34
Screenshots

Smithsonain Ch. - Legends of the Pharaohs: Series 1 (2020)

Smithsonain Ch. - Legends of the Pharaohs: Series 1 (2020)

Smithsonain Ch. - Legends of the Pharaohs: Series 1 (2020)

Welcome to my blog - daily update!
Smithsonain Ch. - Legends of the Pharaohs: Series 1 (2020)