Let's Be Evil (2016)

Posted By: Without
Let's Be Evil (2016)

Let's Be Evil (2016)
BDRip | MKV | 720x388 | AVC@850 kb/s | English AAC@108 kb/s | 2 channels | 1 h 22 min | 567 MB
BRRip | AVI | 720x390 | XviD@1835 kb/s | English AC3@448 kb/s | 6 channels | 1 h 22 min | 1.32 GB
BDRip 720p | MKV | 1280x688 | AVC@6067 kb/s | English DTS@1509 kb/s | 6 channels | 1 h 22 min | 4.37 GB
BDRip 1080p | MKV | 1920x1040 | AVC@9859 kb/s | English DTS@1509 kb/s | 6 channels | 1 h 22 min | 6.55 GB
Genre: Horror, Sci-Fi, Thriller

A vision of augmented reality.



General
Unique ID : 253363821863498506700022724509495860419 (0xBE9C18DDD910E16ABC7805FC73E21CC3)
Complete name : J:\Lets.Be.Evil.2016.BDRip.x264-ROVERS.mkv
Format : Matroska
Format version : Version 4 / Version 2
File size : 567 MiB
Duration : 1 h 22 min
Overall bit rate : 960 kb/s
Encoded date : UTC 2016-12-25 06:38:38
Writing application : mkvmerge v8.3.0 ('Over the Horizon') 64bit
Writing library : libebml v1.3.1 + libmatroska v1.4.2

Video
ID : 1
Format : AVC
Format/Info : Advanced Video Codec
Format profile : High@L3.1
Format settings, CABAC : Yes
Format settings, ReFrames : 5 frames
Codec ID : V_MPEG4/ISO/AVC
Duration : 1 h 22 min
Bit rate : 850 kb/s
Width : 720 pixels
Height : 388 pixels
Display aspect ratio : 1.85:1
Frame rate mode : Constant
Frame rate : 23.976 FPS
Color space : YUV
Chroma subsampling : 4:2:0
Bit depth : 8 bits
Scan type : Progressive
Bits/(Pixel*Frame) : 0.127
Stream size : 502 MiB (89%)
Title : X264
Writing library : x264 core 148 r2705 3f5ed56
Encoding settings : cabac=1 / ref=5 / deblock=1:-2:-2 / analyse=0x3:0x113 / me=umh / subme=8 / psy=1 / psy_rd=0.90:0.00 / mixed_ref=1 / me_range=16 / chroma_me=1 / trellis=1 / 8x8dct=1 / cqm=0 / deadzone=21,11 / fast_pskip=1 / chroma_qp_offset=-2 / threads=12 / lookahead_threads=2 / sliced_threads=0 / nr=0 / decimate=1 / interlaced=0 / bluray_compat=0 / constrained_intra=0 / bframes=3 / b_pyramid=2 / b_adapt=2 / b_bias=0 / direct=3 / weightb=1 / open_gop=0 / weightp=2 / keyint=250 / keyint_min=23 / scenecut=40 / intra_refresh=0 / rc_lookahead=50 / rc=crf / mbtree=1 / crf=19.0 / qcomp=0.60 / qpmin=0 / qpmax=69 / qpstep=4 / ip_ratio=1.40 / aq=1:1.00
Language : English
Default : Yes
Forced : No
Color range : Limited
Matrix coefficients : BT.709

Audio
ID : 2
Format : AAC
Format/Info : Advanced Audio Codec
Format profile : LC
Codec ID : A_AAC
Duration : 1 h 22 min
Bit rate : 108 kb/s
Channel(s) : 2 channels
Channel positions : Front: L R
Sampling rate : 48.0 kHz
Frame rate : 46.875 FPS (1024 spf)
Compression mode : Lossy
Stream size : 63.8 MiB (11%)
Language : English
Default : Yes
Forced : No

Menu
00:00:00.000 : en:00:00:00.000
00:07:13.141 : en:00:07:13.141
00:14:02.133 : en:00:14:02.133
00:20:12.920 : en:00:20:12.920
00:28:03.807 : en:00:28:03.807
00:34:08.380 : en:00:34:08.380
00:42:56.407 : en:00:42:56.407
00:49:21.584 : en:00:49:21.584
00:55:04.259 : en:00:55:04.259
01:03:10.996 : en:01:03:10.996
01:09:46.724 : en:01:09:46.724
01:19:36.855 : en:01:19:36.855

General
Complete name : J:\Torrents\Lets.Be.Evil.2016.BRRip.XviD.AC3-EVO\Lets.Be.Evil.2016.BRRip.XviD.AC3-EVO.avi
Format : AVI
Format/Info : Audio Video Interleave
Format profile : OpenDML
Format settings : rec
File size : 1.32 GiB
Duration : 1 h 22 min
Overall bit rate : 2 288 kb/s
Writing application : AVI-Mux GUI 1.17.8.3, Feb 16 201019:42:50

Video
ID : 0
Format : MPEG-4 Visual
Format profile : Advanced Simple@L5
Format settings, BVOP : 2
Format settings, QPel : No
Format settings, GMC : No warppoints
Format settings, Matrix : Default (H.263)
Muxing mode : Packed bitstream
Codec ID : XVID
Codec ID/Hint : XviD
Duration : 1 h 22 min
Bit rate : 1 835 kb/s
Width : 720 pixels
Height : 390 pixels
Display aspect ratio : 1.85:1
Frame rate : 23.976 (24000/1001) FPS
Color space : YUV
Chroma subsampling : 4:2:0
Bit depth : 8 bits
Scan type : Progressive
Compression mode : Lossy
Bits/(Pixel*Frame) : 0.273
Stream size : 1.06 GiB (80%)
Writing library : XviD 66

Audio
ID : 1
Format : AC-3
Format/Info : Audio Coding 3
Mode extension : CM (complete main)
Format settings, Endianness : Big
Codec ID : 2000
Duration : 1 h 22 min
Bit rate mode : Constant
Bit rate : 448 kb/s
Channel(s) : 6 channels
Channel positions : Front: L C R, Side: L R, LFE
Sampling rate : 48.0 kHz
Frame rate : 31.250 FPS (1536 spf)
Bit depth : 16 bits
Compression mode : Lossy
Stream size : 265 MiB (20%)
Alignment : Aligned on interleaves
Interleave, duration : 64 ms (1.53 video frames)
Interleave, preload duration : 192 ms

General
Unique ID : 237000110142583974454664672421877321953 (0xB24C8F96CAFDA39C87ECDCE5851710E1)
Complete name : J:\Lets.Be.Evil.2016.720p.BluRay.x264-ROVERS.mkv
Format : Matroska
Format version : Version 4 / Version 2
File size : 4.37 GiB
Duration : 1 h 22 min
Overall bit rate : 7 577 kb/s
Encoded date : UTC 2016-12-25 06:18:32
Writing application : mkvmerge v8.3.0 ('Over the Horizon') 64bit
Writing library : libebml v1.3.1 + libmatroska v1.4.2

Video
ID : 1
Format : AVC
Format/Info : Advanced Video Codec
Format profile : High@L4.1
Format settings, CABAC : Yes
Format settings, ReFrames : 5 frames
Codec ID : V_MPEG4/ISO/AVC
Duration : 1 h 22 min
Bit rate : 6 067 kb/s
Width : 1 280 pixels
Height : 688 pixels
Display aspect ratio : 1.85:1
Frame rate mode : Constant
Frame rate : 23.976 FPS
Color space : YUV
Chroma subsampling : 4:2:0
Bit depth : 8 bits
Scan type : Progressive
Bits/(Pixel*Frame) : 0.287
Stream size : 3.50 GiB (80%)
Writing library : x264 core 148 r2705 3f5ed56
Encoding settings : cabac=1 / ref=5 / deblock=1:0:0 / analyse=0x3:0x133 / me=umh / subme=7 / psy=1 / psy_rd=1.00:0.00 / mixed_ref=1 / me_range=16 / chroma_me=1 / trellis=1 / 8x8dct=1 / cqm=0 / deadzone=21,11 / fast_pskip=0 / chroma_qp_offset=-2 / threads=18 / lookahead_threads=3 / sliced_threads=0 / nr=0 / decimate=1 / interlaced=0 / bluray_compat=0 / constrained_intra=0 / bframes=3 / b_pyramid=2 / b_adapt=1 / b_bias=0 / direct=1 / weightb=1 / open_gop=0 / weightp=2 / keyint=250 / keyint_min=23 / scenecut=40 / intra_refresh=0 / rc_lookahead=40 / rc=2pass / mbtree=1 / bitrate=6067 / ratetol=1.0 / qcomp=0.60 / qpmin=0 / qpmax=69 / qpstep=4 / cplxblur=20.0 / qblur=0.5 / ip_ratio=1.40 / aq=1:1.00
Language : English
Default : Yes
Forced : No

Audio
ID : 2
Format : DTS
Format/Info : Digital Theater Systems
Mode : 16
Format settings, Endianness : Big
Codec ID : A_DTS
Duration : 1 h 22 min
Bit rate mode : Constant
Bit rate : 1 509 kb/s
Channel(s) : 6 channels
Channel positions : Front: L C R, Side: L R, LFE
Sampling rate : 48.0 kHz
Frame rate : 93.750 FPS (512 spf)
Bit depth : 24 bits
Compression mode : Lossy
Stream size : 891 MiB (20%)
Language : English
Default : Yes
Forced : No

Menu
00:00:00.000 : en:00:00:00.000
00:07:13.141 : en:00:07:13.141
00:14:02.133 : en:00:14:02.133
00:20:12.920 : en:00:20:12.920
00:28:03.807 : en:00:28:03.807
00:34:08.380 : en:00:34:08.380
00:42:56.407 : en:00:42:56.407
00:49:21.584 : en:00:49:21.584
00:55:04.259 : en:00:55:04.259
01:03:10.996 : en:01:03:10.996
01:09:46.724 : en:01:09:46.724
01:19:36.855 : en:01:19:36.855

General
Unique ID : 188934084657781239193657142642564845242 (0x8E236190CDC912D38E2AF1490F9ACEBA)
Complete name : J:\Lets.Be.Evil.2016.1080p.BluRay.x264-ROVERS.mkv
Format : Matroska
Format version : Version 4 / Version 2
File size : 6.56 GiB
Duration : 1 h 22 min
Overall bit rate : 11.4 Mb/s
Encoded date : UTC 2016-12-25 08:12:36
Writing application : mkvmerge v8.3.0 ('Over the Horizon') 64bit
Writing library : libebml v1.3.1 + libmatroska v1.4.2

Video
ID : 1
Format : AVC
Format/Info : Advanced Video Codec
Format profile : High@L4.1
Format settings, CABAC : Yes
Format settings, ReFrames : 4 frames
Codec ID : V_MPEG4/ISO/AVC
Duration : 1 h 22 min
Bit rate : 9 859 kb/s
Width : 1 920 pixels
Height : 1 040 pixels
Display aspect ratio : 1.85:1
Frame rate mode : Constant
Frame rate : 23.976 FPS
Color space : YUV
Chroma subsampling : 4:2:0
Bit depth : 8 bits
Scan type : Progressive
Bits/(Pixel*Frame) : 0.206
Stream size : 5.69 GiB (87%)
Writing library : x264 core 148 r2705 3f5ed56
Encoding settings : cabac=1 / ref=4 / deblock=1:0:0 / analyse=0x3:0x133 / me=umh / subme=7 / psy=1 / psy_rd=1.00:0.00 / mixed_ref=1 / me_range=16 / chroma_me=1 / trellis=1 / 8x8dct=1 / cqm=0 / deadzone=21,11 / fast_pskip=0 / chroma_qp_offset=-2 / threads=18 / lookahead_threads=3 / sliced_threads=0 / nr=0 / decimate=1 / interlaced=0 / bluray_compat=0 / constrained_intra=0 / bframes=3 / b_pyramid=2 / b_adapt=1 / b_bias=0 / direct=1 / weightb=1 / open_gop=0 / weightp=2 / keyint=250 / keyint_min=23 / scenecut=40 / intra_refresh=0 / rc_lookahead=40 / rc=2pass / mbtree=1 / bitrate=9859 / ratetol=1.0 / qcomp=0.60 / qpmin=0 / qpmax=69 / qpstep=4 / cplxblur=20.0 / qblur=0.5 / ip_ratio=1.40 / aq=1:1.00
Language : English
Default : Yes
Forced : No

Audio
ID : 2
Format : DTS
Format/Info : Digital Theater Systems
Mode : 16
Format settings, Endianness : Big
Codec ID : A_DTS
Duration : 1 h 22 min
Bit rate mode : Constant
Bit rate : 1 509 kb/s
Channel(s) : 6 channels
Channel positions : Front: L C R, Side: L R, LFE
Sampling rate : 48.0 kHz
Frame rate : 93.750 FPS (512 spf)
Bit depth : 24 bits
Compression mode : Lossy
Stream size : 891 MiB (13%)
Language : English
Default : Yes
Forced : No

Menu
00:00:00.000 : en:00:00:00.000
00:07:13.141 : en:00:07:13.141
00:14:02.133 : en:00:14:02.133
00:20:12.920 : en:00:20:12.920
00:28:03.807 : en:00:28:03.807
00:34:08.380 : en:00:34:08.380
00:42:56.407 : en:00:42:56.407
00:49:21.584 : en:00:49:21.584
00:55:04.259 : en:00:55:04.259
01:03:10.996 : en:01:03:10.996
01:09:46.724 : en:01:09:46.724
01:19:36.855 : en:01:19:36.855


BDRip Screenshots

Let's Be Evil (2016)

Let's Be Evil (2016)

Let's Be Evil (2016)


BRRip Screenshots

Let's Be Evil (2016)

Let's Be Evil (2016)

Let's Be Evil (2016)


BDRip 720p Screenshots

Let's Be Evil (2016)

Let's Be Evil (2016)

Let's Be Evil (2016)


BDRip 1080p Screenshots

Let's Be Evil (2016)

Let's Be Evil (2016)

Let's Be Evil (2016)


Come Visit My Blog (•‿•)