Life of a King (2013)

Posted By: NaVi7
Life of a King (2013)

Life of a King (2013)
BRRip 480p | AVI / XVID, 1689 Kbps | 720x400 | 1h 41mn | 1.52 GB | English: AC3, 448 Kbps (6 ch)
Genre: Drama

After being incarcerated for eighteen years, Eugene Brown made an unexpected move. He established a Chess Club for inner-city high school students in Washington D.C. where, amidst dwindling educational resources, over-policing and a looming drug economy, it can be near impossible for youth to find their way to a whole and happy adulthood. Brown resolved to teach young people the fundamentals of chess but it was never just a game for them. For Brown and his students, chess became a matter of survival. Always think before you move.

imdb

General
Complete name : Life.Of.A.King.2013.480p.BRRip.XviD.AC3-EVO.avi
Format : AVI
Format/Info : Audio Video Interleave
File size : 1.52 GiB
Duration : 1h 41mn
Overall bit rate : 2 146 Kbps
Writing library : VirtualDub build 32593/release

Video
ID : 0
Format : MPEG-4 Visual
Format profile : Advanced Simple@L5
Format settings, BVOP : Yes
Format settings, QPel : No
Format settings, GMC : No warppoints
Format settings, Matrix : Default (H.263)
Codec ID : XVID
Codec ID/Hint : XviD
Duration : 1h 41mn
Bit rate : 1 689 Kbps
Width : 720 pixels
Height : 400 pixels
Display aspect ratio : 16:9
Frame rate : 23.976 fps
Color space : YUV
Chroma subsampling : 4:2:0
Bit depth : 8 bits
Scan type : Progressive
Compression mode : Lossy
Bits/(Pixel*Frame) : 0.245
Stream size : 1.20 GiB (79%)
Writing library : XviD 64

Audio
ID : 1
Format : AC-3
Format/Info : Audio Coding 3
Mode extension : CM (complete main)
Format settings, Endianness : Big
Codec ID : 2000
Duration : 1h 41mn
Bit rate mode : Constant
Bit rate : 448 Kbps
Channel count : 6 channels
Channel positions : Front: L C R, Side: L R, LFE
Sampling rate : 48.0 KHz
Bit depth : 16 bits
Compression mode : Lossy
Stream size : 325 MiB (21%)
Alignment : Aligned on interleaves
Interleave, duration : 42 ms (1.00 video frame)
Interleave, preload duration : 512 ms


screenshots:

Life of a King (2013)

Life of a King (2013)

Life of a King (2013)