Subcategories

Liza, a rókatündér (2015)

Posted By: JohnSmith
Liza, a rókatündér (2015)

Liza, a rókatündér / Liza the Fox-Fairy (2015)
BRRip | MKV / AVC@1548 kb/s | 720x294 | 1h 37mn | 1.37 GB | Hungarian: AC3, 448 kb/s (6 ch) | Subtiltes: English
BDRip 720p | MKV / AVC@3766 kb/s | 1280x522 | 1h 37mn | 3.07 GB | Hungarian: AC3, 640 kb/s (6 ch) | Subtiltes: English
Genre: Comedy | Fantasy | Romance

Liza's a nurse, seeking love. Her only company is a long-dead Japanese pop star, who turns her into a fox-fairy out of jealousy. Now, every men who desires Liza shall die horribly. Can she overcome the curse?

IMDB - 9 wins & 3 nominations.



General
Unique ID : 228626294283581605153690862896666818510 (0xABFFD2977435CD389CCBAC7F7036B7CE)
Complete name : C:\Liza.the.Fox.Fairy.2015.BRRip.mkv
Format : Matroska
Format version : Version 4 / Version 2
File size : 1.37 GiB
Duration : 1h 37mn
Overall bit rate : 1 998 Kbps
Encoded date : UTC 2015-12-01 06:39:46
Writing application : mkvmerge v8.3.0 ('Over the Horizon') 64bit
Writing library : libebml v1.3.1 + libmatroska v1.4.2
DURATION : 01:33:35.958000000
NUMBER_OF_FRAMES : 783
NUMBER_OF_BYTES : 21259
_STATISTICS_WRITING_APP : mkvmerge v8.3.0 ('Over the Horizon') 64bit
_STATISTICS_WRITING_DATE_UT : 2015-12-01 06:39:46
_STATISTICS_TAGS : BPS DURATION NUMBER_OF_FRAMES NUMBER_OF_BYTES

Video
ID : 1
Format : AVC
Format/Info : Advanced Video Codec
Format profile : Baseline@L3.1
Format settings, CABAC : No
Format settings, ReFrames : 1 frame
Codec ID : V_MPEG4/ISO/AVC
Duration : 1h 37mn
Bit rate : 1 548 Kbps
Width : 720 pixels
Height : 294 pixels
Display aspect ratio : 2.40:1
Frame rate mode : Constant
Frame rate : 24.000 fps
Color space : YUV
Chroma subsampling : 4:2:0
Bit depth : 8 bits
Scan type : Progressive
Bits/(Pixel*Frame) : 0.305
Stream size : 1.03 GiB (76%)
Writing library : x264 core 142 r2479 dd79a61
Encoding settings : cabac=0 / ref=1 / deblock=1:0:0 / analyse=0x1:0x111 / me=hex / subme=2 / psy=1 / psy_rd=1.00:0.00 / mixed_ref=0 / me_range=16 / chroma_me=1 / trellis=0 / 8x8dct=0 / cqm=0 / deadzone=21,11 / fast_pskip=1 / chroma_qp_offset=0 / threads=12 / lookahead_threads=2 / sliced_threads=0 / nr=0 / decimate=1 / interlaced=0 / bluray_compat=0 / constrained_intra=0 / bframes=0 / weightp=0 / keyint=240 / keyint_min=24 / scenecut=40 / intra_refresh=0 / rc_lookahead=10 / rc=2pass / mbtree=1 / bitrate=1548 / ratetol=1.0 / qcomp=0.60 / qpmin=0 / qpmax=69 / qpstep=4 / cplxblur=20.0 / qblur=0.5 / vbv_maxrate=14000 / vbv_bufsize=14000 / nal_hrd=none / filler=0 / ip_ratio=1.40 / aq=1:1.00
Default : Yes
Forced : No
Color range : Limited
Color primaries : BT.709
Transfer characteristics : BT.709
Matrix coefficients : BT.709
DURATION : 01:37:52.625000000
NUMBER_OF_FRAMES : 140943
NUMBER_OF_BYTES : 1136438225
_STATISTICS_WRITING_APP : mkvmerge v8.3.0 ('Over the Horizon') 64bit
_STATISTICS_WRITING_DATE_UT : 2015-12-01 06:39:46
_STATISTICS_TAGS : BPS DURATION NUMBER_OF_FRAMES NUMBER_OF_BYTES

Audio
ID : 2
Format : AC-3
Format/Info : Audio Coding 3
Mode extension : CM (complete main)
Format settings, Endianness : Big
Codec ID : A_AC3
Duration : 1h 37mn
Bit rate mode : Constant
Bit rate : 448 Kbps
Channel(s) : 6 channels
Channel positions : Front: L C R, Side: L R, LFE
Sampling rate : 48.0 KHz
Compression mode : Lossy
Stream size : 314 MiB (22%)
Language : Hungarian
Default : Yes
Forced : No

Text
ID : 3
Format : UTF-8
Codec ID : S_TEXT/UTF8
Codec ID/Info : UTF-8 Plain Text
Language : English
Default : Yes
Forced : No



General
Unique ID : 193337199917132600092176813668926457010 (0x917363E8A1E4EA6283D2D46E12BB84B2)
Complete name : C:\Liza.the.Fox.Fairy.2015.720p.BluRay.mkv
Format : Matroska
Format version : Version 4 / Version 2
File size : 3.07 GiB
Duration : 1h 37mn
Overall bit rate : 4 495 Kbps
Encoded date : UTC 2015-12-01 06:14:26
Writing application : mkvmerge v8.3.0 ('Over the Horizon') 64bit
Writing library : libebml v1.3.1 + libmatroska v1.4.2
DURATION : 01:33:35.958000000
NUMBER_OF_FRAMES : 783
NUMBER_OF_BYTES : 21259
_STATISTICS_WRITING_APP : mkvmerge v8.3.0 ('Over the Horizon') 64bit
_STATISTICS_WRITING_DATE_UT : 2015-12-01 06:14:26
_STATISTICS_TAGS : BPS DURATION NUMBER_OF_FRAMES NUMBER_OF_BYTES

Video
ID : 1
Format : AVC
Format/Info : Advanced Video Codec
Format profile : High@L4.1
Format settings, CABAC : Yes
Format settings, ReFrames : 12 frames
Codec ID : V_MPEG4/ISO/AVC
Duration : 1h 37mn
Bit rate : 3 766 Kbps
Width : 1 280 pixels
Height : 522 pixels
Display aspect ratio : 2.452
Frame rate mode : Constant
Frame rate : 24.000 fps
Color space : YUV
Chroma subsampling : 4:2:0
Bit depth : 8 bits
Scan type : Progressive
Bits/(Pixel*Frame) : 0.235
Stream size : 2.57 GiB (84%)
Writing library : x264 core 148 r2638+53 bb29004 t_mod_Custom [8-bit@all X86_64]
Encoding settings : cabac=1 / ref=12 / deblock=1:-3:-3 / analyse=0x3:0x133 / me=umh / subme=11 / psy=1 / fade_compensate=0.00 / psy_rd=1.05:0.00 / mixed_ref=1 / me_range=48 / chroma_me=1 / trellis=2 / 8x8dct=1 / cqm=0 / deadzone=21,11 / fast_pskip=1 / chroma_qp_offset=-2 / threads=8 / lookahead_threads=1 / sliced_threads=0 / nr=0 / decimate=1 / interlaced=0 / bluray_compat=0 / constrained_intra=0 / fgo=0 / bframes=9 / b_pyramid=2 / b_adapt=2 / b_bias=0 / direct=3 / weightb=1 / open_gop=0 / weightp=2 / keyint=250 / keyint_min=24 / scenecut=40 / intra_refresh=0 / rc_lookahead=150 / rc=crf / mbtree=0 / crf=16.1000 / qcomp=0.60 / qpmin=0:0:0 / qpmax=69:69:69 / qpstep=4 / vbv_maxrate=50000 / vbv_bufsize=62500 / crf_max=0.0 / nal_hrd=none / filler=0 / ip_ratio=1.40 / pb_ratio=1.30 / aq=1:0.80 / aq-sensitivity=10.00 / aq-factor=1.00:1.00:1.00 / aq2=0 / aq3=0 / zones=164,225,crf=14.1/19430,19689,crf=15.6/121019,121121,crf=15.1/121212,121258,crf=15.1/121391,121434,crf=15.1/121469,121543,crf=15.1/122472,122674,crf=15.6/127448,127492,crf=15.1/128053,128161,crf=15.1
Language : Hungarian
Default : Yes
Forced : No
DURATION : 01:37:52.625000000
NUMBER_OF_FRAMES : 140943
NUMBER_OF_BYTES : 2828955164
_STATISTICS_WRITING_APP : mkvmerge v8.3.0 ('Over the Horizon') 64bit
_STATISTICS_WRITING_DATE_UT : 2015-12-01 06:14:26
_STATISTICS_TAGS : BPS DURATION NUMBER_OF_FRAMES NUMBER_OF_BYTES

Audio
ID : 2
Format : AC-3
Format/Info : Audio Coding 3
Mode extension : CM (complete main)
Format settings, Endianness : Big
Codec ID : A_AC3
Duration : 1h 37mn
Bit rate mode : Constant
Bit rate : 640 Kbps
Channel(s) : 6 channels
Channel positions : Front: L C R, Side: L R, LFE
Sampling rate : 48.0 KHz
Compression mode : Lossy
Stream size : 448 MiB (14%)
Language : Hungarian
Default : Yes
Forced : No

Text
ID : 3
Format : UTF-8
Codec ID : S_TEXT/UTF8
Codec ID/Info : UTF-8 Plain Text
Language : English
Default : Yes
Forced : No

Menu
00:00:00.000 : en:Chapter 1
00:11:57.417 : en:Chapter 2
00:24:40.292 : en:Chapter 3
00:37:51.625 : en:Chapter 4
00:50:34.292 : en:Chapter 5
01:00:59.917 : en:Chapter 6
01:14:37.083 : en:Chapter 7
01:19:51.542 : en:Chapter 8


Screenshots BRRip

Liza, a rókatündér (2015)

Liza, a rókatündér (2015)

Liza, a rókatündér (2015)


Screenshots BDRip 720p

Liza, a rókatündér (2015)

Liza, a rókatündér (2015)

Liza, a rókatündér (2015)