Lo-maen-seu Jo / Romance Joe (2011)

Posted By: Rare-1
Lo-maen-seu Jo / Romance Joe (2011)

Lo-maen-seu Jo / Romance Joe (2011)
DVDRip | MKV | 714 x 362 | AVC @ 1488 Kbps | 115 min | 1.59 Gb
Audio: Korean AC3 5.1 @ 448 Kbps | Subs: English, Korean (embedded)
Genre: Drama | South Korea

A famous movie director arrives in a small town to finish his movie script. He sits in front of his computer in his motel, but can't think of anything to write. The director orders coffee to his room and then complains to the delivery girl of his writer's block. The delivery girl then tells the director the story of "Romance Joe".

IMDB 6.4/10 from 55 users

Director: Kwang-kuk Lee
Writer: N/A
Actors: Young-Pil Kim, Dong-mi Shin, Chai-eu Lee, Da-wit Lee
Rated: N/A
Runtime: 115 min

Popular actress Woo Joo-Hyun committed suicide, while Romance Joe worked on the set as an assistant director. Romance Joe hears of Woo Joo-Hyun's suicide and decides to quit his job. He also starts to contemplate suicide. Romance Joe then goes back to his hometown and meets someone that he may be intimately related too…

Romance Joe” marks the debut of writer director Lee Kwang Kuk, who served his apprenticeship by working on several films by Korean master Hong Sang Soo including “HaHaHa” and “Like You Know It All”. Unsurprisingly, the film is very much influenced by Hong’s output, revolving around a carefully constructed series of primary and secondary narratives, which intertwine and repeat each other throughout. The similarity is furthered by Lee’s use of several performers who have worked with Hong in the past, including Jo Han Cheol (“A Tale of Cinema”) and Lee Chae Eun (“Oki’s Movie”), joined by Kim Young Pil (“Rolling Home with a Bull”), Shin Dong Mi (“A Million”) and upcoming young actor David Lee (“The Front Line”). As with his mentor, the film has found Lee success at festivals at home and his abroad, winning the Citizen Reviewers’ Award at Pusan, being nominated for the Tiger Award at Rotterdam and playing at the London Film Festival in 2012.

James Mudge for Beyond Hollywood.


Lo-maen-seu Jo / Romance Joe (2011)

Lo-maen-seu Jo / Romance Joe (2011)

Lo-maen-seu Jo / Romance Joe (2011)

Lo-maen-seu Jo / Romance Joe (2011)


Lo-maen-seu Jo / Romance Joe (2011)


More Screenshots:

Lo-maen-seu Jo / Romance Joe (2011)



General
Unique ID : 193450676335053038196571110775377675194 (0x91893EBA637AAABB843A193F8F18C3BA)
Complete name : F:\Romance.Joe.2011.DVDRip.x264-HANDJOB.mkv
Format : Matroska
Format version : Version 4 / Version 2
File size : 1.59 GiB
Duration : 1h 55mn
Overall bit rate : 1 975 Kbps
Movie name : Romance.Joe.2011.DVDRip.x264-HANDJOB
Encoded date : UTC 2015-01-13 20:12:47
Writing application : mkvmerge v7.0.0 ('Where We Going') 64bit built on Jun 9 2014 15:16:27
Writing library : Lavf55.12.0
COMMENT : Encoded by Pirata00 for HANDJOB
DURATION : 01:52:07.353000000
NUMBER_OF_FRAMES : 1041
NUMBER_OF_BYTES : 29755
_STATISTICS_WRITING_APP : mkvmerge v7.0.0 ('Where We Going') 64bit built on Jun 9 2014 15:16:27
_STATISTICS_WRITING_DATE_UTC : 2015-01-13 20:12:47
_STATISTICS_TAGS : BPS DURATION NUMBER_OF_FRAMES NUMBER_OF_BYTES

Video
ID : 1
Format : AVC
Format/Info : Advanced Video Codec
Format profile : High@L3.1
Format settings, CABAC : Yes
Format settings, ReFrames : 9 frames
Codec ID : V_MPEG4/ISO/AVC
Duration : 1h 55mn
Bit rate : 1 488 Kbps
Width : 714 pixels
Height : 362 pixels
Display aspect ratio : 2.35:1
Original display aspect ratio : 2.35:1
Frame rate mode : Constant
Frame rate : 23.976 fps
Color space : YUV
Chroma subsampling : 4:2:0
Bit depth : 8 bits
Scan type : Progressive
Bits/(Pixel*Frame) : 0.240
Stream size : 1.20 GiB (75%)
Writing library : x264 core 142 r2479 dd79a61
Encoding settings : cabac=1 / ref=9 / deblock=1:-3:-3 / analyse=0x3:0x133 / me=umh / subme=11 / psy=1 / psy_rd=1.00:0.00 / mixed_ref=1 / me_range=32 / chroma_me=1 / trellis=2 / 8x8dct=1 / cqm=0 / deadzone=21,11 / fast_pskip=0 / chroma_qp_offset=-2 / threads=12 / lookahead_threads=1 / sliced_threads=0 / nr=0 / decimate=1 / interlaced=0 / bluray_compat=0 / constrained_intra=0 / bframes=6 / b_pyramid=2 / b_adapt=2 / b_bias=0 / direct=3 / weightb=1 / open_gop=0 / weightp=2 / keyint=240 / keyint_min=24 / scenecut=40 / intra_refresh=0 / rc=crf / mbtree=0 / crf=16.0 / qcomp=0.70 / qpmin=0 / qpmax=69 / qpstep=4 / ip_ratio=1.40 / pb_ratio=1.30 / aq=1:1.00
Default : Yes
Forced : No
Color primaries : BT.601 NTSC
Transfer characteristics : BT.709
Matrix coefficients : BT.601
Color range : Limited
DURATION : 01:55:26.253000000
NUMBER_OF_FRAMES : 166064
NUMBER_OF_BYTES : 1319348417
_STATISTICS_WRITING_APP : mkvmerge v7.0.0 ('Where We Going') 64bit built on Jun 9 2014 15:16:27
_STATISTICS_WRITING_DATE_UTC : 2015-01-13 20:12:47
_STATISTICS_TAGS : BPS DURATION NUMBER_OF_FRAMES NUMBER_OF_BYTES

Audio
ID : 2
Format : AC-3
Format/Info : Audio Coding 3
Mode extension : CM (complete main)
Format settings, Endianness : Big
Codec ID : A_AC3
Duration : 1h 55mn
Bit rate mode : Constant
Bit rate : 448 Kbps
Channel(s) : 6 channels
Channel positions : Front: L C R, Side: L R, LFE
Sampling rate : 48.0 KHz
Bit depth : 16 bits
Compression mode : Lossy
Stream size : 370 MiB (23%)
Title : Surround
Language : Korean
Default : Yes
Forced : No
DURATION : 01:55:26.176000000
NUMBER_OF_FRAMES : 216443
NUMBER_OF_BYTES : 387865856
_STATISTICS_WRITING_APP : mkvmerge v7.0.0 ('Where We Going') 64bit built on Jun 9 2014 15:16:27
_STATISTICS_WRITING_DATE_UTC : 2015-01-13 20:12:47
_STATISTICS_TAGS : BPS DURATION NUMBER_OF_FRAMES NUMBER_OF_BYTES

Text #1
ID : 3
Format : UTF-8
Codec ID : S_TEXT/UTF8
Codec ID/Info : UTF-8 Plain Text
Language : English
Default : Yes
Forced : No

Text #2
ID : 4
Format : VobSub
Muxing mode : zlib
Codec ID : S_VOBSUB
Codec ID/Info : The same subtitle format used on DVDs
Language : Korean
Default : No
Forced : No
DURATION : 01:51:01.653000000
NUMBER_OF_FRAMES : 1052
NUMBER_OF_BYTES : 1166281
_STATISTICS_WRITING_APP : mkvmerge v7.0.0 ('Where We Going') 64bit built on Jun 9 2014 15:16:27
_STATISTICS_WRITING_DATE_UTC : 2015-01-13 20:12:47
_STATISTICS_TAGS : BPS DURATION NUMBER_OF_FRAMES NUMBER_OF_BYTES

Menu
00:00:00.000 : :Chapter 1
00:07:41.961 : :Chapter 2
00:11:41.618 : :Chapter 3
00:19:38.761 : :Chapter 4
00:25:03.585 : :Chapter 5
00:30:45.177 : :Chapter 6
00:38:04.365 : :Chapter 7
00:48:06.717 : :Chapter 8
00:58:59.536 : :Chapter 9
01:05:44.607 : :Chapter 10
01:14:20.790 : :Chapter 11
01:27:22.070 : :Chapter 12
01:34:38.006 : :Chapter 13
01:40:13.090 : :Chapter 14
01:45:04.298 : :Chapter 15
01:53:04.111 : :Chapter 16


Many Thanks to Original uploader.


For More Rare Movies Check out my blog!


Download Links :

No Mirrors Please