Subcategories

London Has Fallen (2016)

Posted By: JohnSmith
London Has Fallen (2016)

London Has Fallen (2016)
BDRip | MKV / AVC@711 kb/s | 720x302 | 1h 38mn | 584 MB | English: AAC, 113 kb/s (2 ch)
BRRip | MKV / AVC@1529 kb/s | 720x304 | 1h 38mn | 1.36 GB | English: AC3, 448 kb/s (6 ch)
BDRip 720p | MKV / AVC@4830 kb/s | 1280x536 | 1h 38mn | 4.37 GB | English: DTS, 1509 kb/s (6 ch)
BDRip 1080p | MKV / AVC@9589 kb/s | 1920x808 | 1h 38mn | 7.64 GB | English: DTS, 1509 kb/s (6 ch)
Genre: Action | Crime | Thriller

In London for the Prime Minister's funeral, Mike Banning discovers a plot to assassinate all the attending world leaders.




General
Unique ID : 230338427705548410556947497362830724742 (0xAD4991496448D0AD8457129F3E950E86)
Complete name : C:\London.Has.Fallen.2016.BDRip.x264-DRONES.mkv
Format : Matroska
Format version : Version 4 / Version 2
File size : 584 MiB
Duration : 1h 38mn
Overall bit rate : 827 Kbps
Encoded date : UTC 2016-05-31 19:23:01
Writing application : mkvmerge v8.3.0 ('Over the Horizon') 64bit
Writing library : libebml v1.3.1 + libmatroska v1.4.2
DURATION : 01:38:41.962000000
NUMBER_OF_FRAMES : 277592
NUMBER_OF_BYTES : 83929222
_STATISTICS_WRITING_APP : mkvmerge v8.3.0 ('Over the Horizon') 64bit
_STATISTICS_WRITING_DATE_UT : 2016-05-31 19:23:01
_STATISTICS_TAGS : BPS DURATION NUMBER_OF_FRAMES NUMBER_OF_BYTES

Video
ID : 1
Format : AVC
Format/Info : Advanced Video Codec
Format profile : High@L3.1
Format settings, CABAC : Yes
Format settings, ReFrames : 5 frames
Codec ID : V_MPEG4/ISO/AVC
Duration : 1h 38mn
Width : 720 pixels
Height : 302 pixels
Display aspect ratio : 2.40:1
Frame rate mode : Constant
Frame rate : 23.976 fps
Color space : YUV
Chroma subsampling : 4:2:0
Bit depth : 8 bits
Scan type : Progressive
Title : X264
Writing library : x264 core 148 r2692 64f4e24
Encoding settings : cabac=1 / ref=5 / deblock=1:-2:-2 / analyse=0x3:0x113 / me=umh / subme=8 / psy=1 / psy_rd=0.90:0.00 / mixed_ref=1 / me_range=16 / chroma_me=1 / trellis=1 / 8x8dct=1 / cqm=0 / deadzone=21,11 / fast_pskip=1 / chroma_qp_offset=-2 / threads=9 / lookahead_threads=1 / sliced_threads=0 / nr=0 / decimate=1 / interlaced=0 / bluray_compat=0 / constrained_intra=0 / bframes=3 / b_pyramid=2 / b_adapt=2 / b_bias=0 / direct=3 / weightb=1 / open_gop=0 / weightp=2 / keyint=250 / keyint_min=23 / scenecut=40 / intra_refresh=0 / rc_lookahead=50 / rc=crf / mbtree=1 / crf=19.0 / qcomp=0.60 / qpmin=0 / qpmax=69 / qpstep=4 / ip_ratio=1.40 / aq=1:1.00
Language : English
Default : Yes
Forced : No
Color range : Limited
Matrix coefficients : BT.709
DURATION : 01:38:41.884000000
NUMBER_OF_FRAMES : 141983
NUMBER_OF_BYTES : 526354860
_STATISTICS_WRITING_APP : mkvmerge v8.3.0 ('Over the Horizon') 64bit
_STATISTICS_WRITING_DATE_UT : 2016-05-31 19:23:01
_STATISTICS_TAGS : BPS DURATION NUMBER_OF_FRAMES NUMBER_OF_BYTES

Audio
ID : 2
Format : AAC
Format/Info : Advanced Audio Codec
Format profile : LC
Codec ID : A_AAC
Duration : 1h 38mn
Channel(s) : 2 channels
Channel positions : Front: L R
Sampling rate : 48.0 KHz
Compression mode : Lossy
Language : English
Default : Yes
Forced : No

Menu
00:00:00.000 : en:00:00:00.000
00:05:23.281 : en:00:05:23.281
00:10:12.987 : en:00:10:12.987
00:15:53.202 : en:00:15:53.202



General
Unique ID : 173266246530738148932967311402421013600 (0x8259DD8151DBE3678B52297A7F0D4C60)
Complete name : C:\London.Has.Fallen.2016.BRRip.mkv
Format : Matroska
Format version : Version 4 / Version 2
File size : 1.36 GiB
Duration : 1h 38mn
Overall bit rate : 1 979 Kbps
Encoded date : UTC 2016-05-31 18:30:05
Writing application : mkvmerge v8.3.0 ('Over the Horizon') 64bit
Writing library : libebml v1.3.1 + libmatroska v1.4.2

Video
ID : 1
Format : AVC
Format/Info : Advanced Video Codec
Format profile : Baseline@L3.1
Format settings, CABAC : No
Format settings, ReFrames : 1 frame
Codec ID : V_MPEG4/ISO/AVC
Duration : 1h 38mn
Bit rate : 1 529 Kbps
Width : 720 pixels
Height : 304 pixels
Display aspect ratio : 2.35:1
Frame rate mode : Constant
Frame rate : 23.976 fps
Color space : YUV
Chroma subsampling : 4:2:0
Bit depth : 8 bits
Scan type : Progressive
Bits/(Pixel*Frame) : 0.291
Stream size : 1.03 GiB (75%)
Writing library : x264 core 142 r2479 dd79a61
Encoding settings : cabac=0 / ref=1 / deblock=1:0:0 / analyse=0x1:0x111 / me=hex / subme=2 / psy=1 / psy_rd=1.00:0.00 / mixed_ref=0 / me_range=16 / chroma_me=1 / trellis=0 / 8x8dct=0 / cqm=0 / deadzone=21,11 / fast_pskip=1 / chroma_qp_offset=0 / threads=12 / lookahead_threads=2 / sliced_threads=0 / nr=0 / decimate=1 / interlaced=0 / bluray_compat=0 / constrained_intra=0 / bframes=0 / weightp=0 / keyint=240 / keyint_min=24 / scenecut=40 / intra_refresh=0 / rc_lookahead=10 / rc=2pass / mbtree=1 / bitrate=1529 / ratetol=1.0 / qcomp=0.60 / qpmin=0 / qpmax=69 / qpstep=4 / cplxblur=20.0 / qblur=0.5 / vbv_maxrate=14000 / vbv_bufsize=14000 / nal_hrd=none / filler=0 / ip_ratio=1.40 / aq=1:1.00
Default : Yes
Forced : No
Color range : Limited
Color primaries : BT.709
Transfer characteristics : BT.709
Matrix coefficients : BT.709
DURATION : 01:38:41.875000000
NUMBER_OF_FRAMES : 141983
NUMBER_OF_BYTES : 1131665337
_STATISTICS_WRITING_APP : mkvmerge v8.3.0 ('Over the Horizon') 64bit
_STATISTICS_WRITING_DATE_UT : 2016-05-31 18:30:05
_STATISTICS_TAGS : BPS DURATION NUMBER_OF_FRAMES NUMBER_OF_BYTES

Audio
ID : 2
Format : AC-3
Format/Info : Audio Coding 3
Mode extension : CM (complete main)
Format settings, Endianness : Big
Codec ID : A_AC3
Duration : 1h 38mn
Bit rate mode : Constant
Bit rate : 448 Kbps
Channel(s) : 6 channels
Channel positions : Front: L C R, Side: L R, LFE
Sampling rate : 48.0 KHz
Compression mode : Lossy
Delay relative to video : -5ms
Stream size : 316 MiB (23%)
Title : Surround
Language : English
Default : Yes
Forced : No
DURATION : 01:38:41.920000000
NUMBER_OF_FRAMES : 185060
NUMBER_OF_BYTES : 331627520
_STATISTICS_WRITING_APP : mkvmerge v8.3.0 ('Over the Horizon') 64bit
_STATISTICS_WRITING_DATE_UT : 2016-05-31 18:30:05
_STATISTICS_TAGS : BPS DURATION NUMBER_OF_FRAMES NUMBER_OF_BYTES



General
Unique ID : 195892943249014697889842170989299652565 (0x935F9BC89AEF7712834C45CF233C57D5)
Complete name : C:\London.Has.Fallen.2016.720p.BluRay.x264-DRONES.mkv
Format : Matroska
Format version : Version 4 / Version 2
File size : 4.37 GiB
Duration : 1h 38mn
Overall bit rate : 6 336 Kbps
Encoded date : UTC 2016-05-31 19:00:36
Writing application : mkvmerge v8.3.0 ('Over the Horizon') 64bit
Writing library : libebml v1.3.1 + libmatroska v1.4.2
DURATION : 01:38:41.920000000
NUMBER_OF_FRAMES : 555180
NUMBER_OF_BYTES : 1117022160
_STATISTICS_WRITING_APP : mkvmerge v8.3.0 ('Over the Horizon') 64bit
_STATISTICS_WRITING_DATE_UT : 2016-05-31 19:00:36
_STATISTICS_TAGS : BPS DURATION NUMBER_OF_FRAMES NUMBER_OF_BYTES

Video
ID : 1
Format : AVC
Format/Info : Advanced Video Codec
Format profile : High@L4.1
Format settings, CABAC : Yes
Format settings, ReFrames : 5 frames
Codec ID : V_MPEG4/ISO/AVC
Duration : 1h 38mn
Bit rate : 4 830 Kbps
Width : 1 280 pixels
Height : 536 pixels
Display aspect ratio : 2.40:1
Frame rate mode : Constant
Frame rate : 23.976 fps
Color space : YUV
Chroma subsampling : 4:2:0
Bit depth : 8 bits
Scan type : Progressive
Bits/(Pixel*Frame) : 0.294
Stream size : 3.24 GiB (74%)
Writing library : x264 core 148 r2692 64f4e24
Encoding settings : cabac=1 / ref=5 / deblock=1:0:0 / analyse=0x3:0x133 / me=umh / subme=7 / psy=1 / psy_rd=1.00:0.00 / mixed_ref=1 / me_range=16 / chroma_me=1 / trellis=1 / 8x8dct=1 / cqm=0 / deadzone=21,11 / fast_pskip=0 / chroma_qp_offset=-2 / threads=12 / lookahead_threads=2 / sliced_threads=0 / nr=0 / decimate=1 / interlaced=0 / bluray_compat=0 / constrained_intra=0 / bframes=3 / b_pyramid=2 / b_adapt=1 / b_bias=0 / direct=1 / weightb=1 / open_gop=0 / weightp=2 / keyint=250 / keyint_min=23 / scenecut=40 / intra_refresh=0 / rc_lookahead=40 / rc=2pass / mbtree=1 / bitrate=4830 / ratetol=1.0 / qcomp=0.60 / qpmin=0 / qpmax=69 / qpstep=4 / cplxblur=20.0 / qblur=0.5 / ip_ratio=1.40 / aq=1:1.00
Language : English
Default : Yes
Forced : No
DURATION : 01:38:41.884000000
NUMBER_OF_FRAMES : 141983
NUMBER_OF_BYTES : 3571201994
_STATISTICS_WRITING_APP : mkvmerge v8.3.0 ('Over the Horizon') 64bit
_STATISTICS_WRITING_DATE_UT : 2016-05-31 19:00:36
_STATISTICS_TAGS : BPS DURATION NUMBER_OF_FRAMES NUMBER_OF_BYTES

Audio
ID : 2
Format : DTS
Format/Info : Digital Theater Systems
Mode : 16
Format settings, Endianness : Big
Codec ID : A_DTS
Duration : 1h 38mn
Bit rate mode : Constant
Bit rate : 1 509 Kbps
Channel(s) : 6 channels
Channel positions : Front: L C R, Side: L R, LFE
Sampling rate : 48.0 KHz
Bit depth : 24 bits
Compression mode : Lossy
Stream size : 1.04 GiB (24%)
Language : English
Default : Yes
Forced : No

Menu
00:00:00.000 : en:00:00:00.000
00:05:23.281 : en:00:05:23.281
00:10:12.987 : en:00:10:12.987
00:15:53.202 : en:00:15:53.202



General
Unique ID : 221958572646191823960596315656222095533 (0xA6FBAA88A0B8A5509EDE6960097F38AD)
Complete name : C:\London.Has.Fallen.2016.1080p.BluRay.x264-DRONES.mkv
Format : Matroska
Format version : Version 4 / Version 2
File size : 7.64 GiB
Duration : 1h 38mn
Overall bit rate : 11.1 Mbps
Encoded date : UTC 2016-05-31 19:33:33
Writing application : mkvmerge v8.3.0 ('Over the Horizon') 64bit
Writing library : libebml v1.3.1 + libmatroska v1.4.2
DURATION : 01:38:41.920000000
NUMBER_OF_FRAMES : 555180
NUMBER_OF_BYTES : 1117022160
_STATISTICS_WRITING_APP : mkvmerge v8.3.0 ('Over the Horizon') 64bit
_STATISTICS_WRITING_DATE_UT : 2016-05-31 19:33:33
_STATISTICS_TAGS : BPS DURATION NUMBER_OF_FRAMES NUMBER_OF_BYTES

Video
ID : 1
Format : AVC
Format/Info : Advanced Video Codec
Format profile : High@L4.1
Format settings, CABAC : Yes
Format settings, ReFrames : 5 frames
Codec ID : V_MPEG4/ISO/AVC
Duration : 1h 38mn
Bit rate : 9 589 Kbps
Width : 1 920 pixels
Height : 808 pixels
Display aspect ratio : 2.40:1
Frame rate mode : Constant
Frame rate : 23.976 fps
Color space : YUV
Chroma subsampling : 4:2:0
Bit depth : 8 bits
Scan type : Progressive
Bits/(Pixel*Frame) : 0.258
Stream size : 6.45 GiB (84%)
Writing library : x264 core 148 r2692 64f4e24
Encoding settings : cabac=1 / ref=5 / deblock=1:0:0 / analyse=0x3:0x133 / me=umh / subme=7 / psy=1 / psy_rd=1.00:0.00 / mixed_ref=1 / me_range=16 / chroma_me=1 / trellis=1 / 8x8dct=1 / cqm=0 / deadzone=21,11 / fast_pskip=0 / chroma_qp_offset=-2 / threads=25 / lookahead_threads=4 / sliced_threads=0 / nr=0 / decimate=1 / interlaced=0 / bluray_compat=0 / constrained_intra=0 / bframes=3 / b_pyramid=2 / b_adapt=1 / b_bias=0 / direct=1 / weightb=1 / open_gop=0 / weightp=2 / keyint=250 / keyint_min=23 / scenecut=40 / intra_refresh=0 / rc_lookahead=40 / rc=2pass / mbtree=1 / bitrate=9589 / ratetol=1.0 / qcomp=0.60 / qpmin=0 / qpmax=69 / qpstep=4 / cplxblur=20.0 / qblur=0.5 / ip_ratio=1.40 / aq=1:1.00
Language : English
Default : Yes
Forced : No
DURATION : 01:38:41.884000000
NUMBER_OF_FRAMES : 141983
NUMBER_OF_BYTES : 7089305380
_STATISTICS_WRITING_APP : mkvmerge v8.3.0 ('Over the Horizon') 64bit
_STATISTICS_WRITING_DATE_UT : 2016-05-31 19:33:33
_STATISTICS_TAGS : BPS DURATION NUMBER_OF_FRAMES NUMBER_OF_BYTES

Audio
ID : 2
Format : DTS
Format/Info : Digital Theater Systems
Mode : 16
Format settings, Endianness : Big
Codec ID : A_DTS
Duration : 1h 38mn
Bit rate mode : Constant
Bit rate : 1 509 Kbps
Channel(s) : 6 channels
Channel positions : Front: L C R, Side: L R, LFE
Sampling rate : 48.0 KHz
Bit depth : 24 bits
Compression mode : Lossy
Stream size : 1.04 GiB (14%)
Language : English
Default : Yes
Forced : No

Menu
00:00:00.000 : en:00:00:00.000
00:05:23.281 : en:00:05:23.281
00:10:12.987 : en:00:10:12.987
00:15:53.202 : en:00:15:53.202


Screenshots BDRip

London Has Fallen (2016)

London Has Fallen (2016)

London Has Fallen (2016)


Screenshots BRRip

London Has Fallen (2016)

London Has Fallen (2016)

London Has Fallen (2016)


Screenshots BDRip 720p

London Has Fallen (2016)

London Has Fallen (2016)

London Has Fallen (2016)


Screenshots BDRip 1080p

London Has Fallen (2016)

London Has Fallen (2016)

London Has Fallen (2016)

BRRip
http://nitroflare.com/view/CF1CF70D2898B59/London.Has.Fallen.2016.BRRip.part1.rar
http://nitroflare.com/view/D48761637E6248E/London.Has.Fallen.2016.BRRip.part2.rar
http://nitroflare.com/view/AAD5A0E9D15D92C/London.Has.Fallen.2016.BRRip.part3.rar
BDRip 720p
http://nitroflare.com/view/B4FF448B6866705/London.Has.Fallen.2016.720p.BluRay.x264-DRONES.part1.rar
http://nitroflare.com/view/DC2A83A5D17DDA3/London.Has.Fallen.2016.720p.BluRay.x264-DRONES.part2.rar
http://nitroflare.com/view/01DEE8364155BBC/London.Has.Fallen.2016.720p.BluRay.x264-DRONES.part3.rar
http://nitroflare.com/view/00283183583958F/London.Has.Fallen.2016.720p.BluRay.x264-DRONES.part4.rar
http://nitroflare.com/view/71E8115BE30D8BE/London.Has.Fallen.2016.720p.BluRay.x264-DRONES.part5.rar
BDRip 1080p
http://nitroflare.com/view/547D6E38A051D00/London.Has.Fallen.2016.1080p.BluRay.x264-DRONES.part1.rar
http://nitroflare.com/view/C316CD53ED0C81B/London.Has.Fallen.2016.1080p.BluRay.x264-DRONES.part2.rar
http://nitroflare.com/view/F905F43089BC3F0/London.Has.Fallen.2016.1080p.BluRay.x264-DRONES.part3.rar
http://nitroflare.com/view/AB3DF33A639A7C4/London.Has.Fallen.2016.1080p.BluRay.x264-DRONES.part4.rar
http://nitroflare.com/view/C0B95A12A9FB94A/London.Has.Fallen.2016.1080p.BluRay.x264-DRONES.part5.rar
http://nitroflare.com/view/12F845835FA6BDA/London.Has.Fallen.2016.1080p.BluRay.x264-DRONES.part6.rar
http://nitroflare.com/view/3972C94DA2326A1/London.Has.Fallen.2016.1080p.BluRay.x264-DRONES.part7.rar
http://nitroflare.com/view/A82368C01CDC313/London.Has.Fallen.2016.1080p.BluRay.x264-DRONES.part8.rar