Lord of the Flies (1963)

Posted By: Tavaz
1080p (FullHD) / BDRip IMDb
Lord of the Flies (1963)

Lord of the Flies (1963)
BDRip | MKV | 1480x1080 | English | H265 @ 2681 kbps | AC-3 @ 128 kbps | 1 h 30 min | 1.79 GiB
Subtitles: English
Genre: Adventure, Drama, Thriller

Amidst a nuclear war, a plane carrying a group of schoolboys crash lands on a deserted island. With no adult survivors, the boys are forced to fend for themselves. At first they cooperate, but when the they split into two separate camps – one led by the pragmatic Ralph and the other by militaristic Jack – their society falls into disarray, leading to a disturbing examination of human nature and a chilling conclusion.

ce6460efb2e74ab382d57c1548148179.mkv (1.8 GB)



General
Complete name : ./ce6460efb2e74ab382d57c1548148179.mkv
Format : Matroska
Format version : Version 2
File size : 1.79 GiB
Duration : 1 h 30 min
Overall bit rate : 2 820 kb/s
Encoded date : UTC 2018-02-14 23:58:52
Writing application : DVDFab 10.0.8.1
Writing library : libebml v1.3.4 + libmatroska v1.4.5

Video
ID : 1
Format : HEVC
Format/Info : High Efficiency Video Coding
Format profile : Main 10@L4@Main
Codec ID : V_MPEGH/ISO/HEVC
Duration : 1 h 30 min
Bit rate : 2 682 kb/s
Width : 1 480 pixels
Height : 1 080 pixels
Display aspect ratio : 1.370
Frame rate mode : Constant
Frame rate : 23.976 (24000/1001) FPS
Color space : YUV
Chroma subsampling : 4:2:0
Bit depth : 10 bits
Bits/(Pixel*Frame) : 0.070
Stream size : 1.70 GiB (95%)
Default : Yes
Forced : No
Color range : Limited
Color primaries : BT.709
Transfer characteristics : BT.709
Matrix coefficients : BT.709

Audio
ID : 2
Format : AC-3
Format/Info : Audio Coding 3
Format settings, Endianness : Big
Codec ID : A_AC3
Duration : 1 h 30 min
Bit rate mode : Constant
Bit rate : 128 kb/s
Channel(s) : 1 channel
Channel positions : Front: C
Sampling rate : 48.0 kHz
Frame rate : 31.250 FPS (1536 SPF)
Bit depth : 16 bits
Compression mode : Lossy
Stream size : 83.1 MiB (5%)
Language : English
Service kind : Complete Main
Default : Yes
Forced : No

Text
ID : 3
Format : VobSub
Codec ID : S_VOBSUB
Codec ID/Info : Picture based subtitle format used on DVDs
Duration : 1 h 30 min
Bit rate : 8 594 b/s
Count of elements : 900
Stream size : 5.55 MiB (0%)
Language : English
Default : No
Forced : No

Menu
00:00:00.000 : en:(01)00:00:00:000
00:04:22.845 : en:(02)00:04:22:845
00:15:53.869 : en:(03)00:15:53:869
00:24:19.499 : en:(04)00:24:19:499
00:26:31.006 : en:(05)00:26:31:006
00:33:56.701 : en:(06)00:33:56:701
00:41:57.139 : en:(07)00:41:57:139
00:48:48.342 : en:(08)00:48:48:342
00:55:12.642 : en:(09)00:55:12:642
01:01:52.709 : en:(10)01:01:52:709
01:10:00.779 : en:(11)01:10:00:779
01:16:15.571 : en:(12)01:16:15:571
01:22:06.504 : en:(13)01:22:06:504
01:30:48.276 : en:(14)01:30:48:276





Lord of the Flies (1963)


Lord of the Flies (1963)


Lord of the Flies (1963)


Lord of the Flies (1963)


Lord of the Flies (1963)