Mädelstrip (2017)

Posted By: Tavaz
1080p (FullHD) / BDRip IMDb
Mädelstrip (2017)

Mädelstrip (2017)
WEB-DL | MKV | 1920x800 | German / English | H264 @ 4828 kbps | DTS @ 768 kbps | 1 h 30 min | 4.49 GiB
Subtitles: German
Genre: Action, Comedy

Emily Middleton (Amy Schumer) wird überraschend von ihrem Freund verlassen. Doch weil sie spontan ist und überhaupt nicht einsieht, den geplanten Trip nach Südamerika ausfallen zu lassen oder alleine zu machen, schnappt sie sich einfach ihre Mutter Linda (Goldie Hawn) als Begleitung, auch wenn die sich zunächst sträubt. Eine chaotische Reise beginnt, bei der die quirlige Tochter und die übervorsichtige Mutter sogar im Knast landen und von Kriminellen entführt werden. Schlussendlich sehen sie aber ein, dass sie ihre Differenzen begraben müssen, um die verrückte Situation zu überstehen, in die sie geraten sind. Und wider Erwarten entpuppen sich die beiden als Team, das zwar zunächst einmal lernen muss, sich zu ergänzen, dann aber doch einigermaßen funktioniert. Vielleicht fällt der Apfel ja doch nicht so weit vom Stamm - oder umgekehrt…

maedelstrip.2017.german.dl.1080p.bluray.x264-doucement.mkv (4.5 GB)
maedelstrip.2017.german.dl.1080p.bluray.x264-doucement.eng.sub (9.5 MB)
maedelstrip.2017.german.dl.1080p.bluray.x264-doucement.sub (8.8 MB)
maedelstrip.2017.german.dl.1080p.bluray.x264-doucement.eng.idx (74.2 KB)
maedelstrip.2017.german.dl.1080p.bluray.x264-doucement.idx (71.4 KB)



General
Unique ID : 180919610315913546119013619863597905411 (0x881BD9790E846E8DAFC9277865607603)
Complete name : ./maedelstrip.2017.german.dl.1080p.bluray.x264-doucement.mkv
Format : Matroska
Format version : Version 4 / Version 2
File size : 4.49 GiB
Duration : 1 h 30 min
Overall bit rate : 7 109 kb/s
Encoded date : UTC 2017-09-21 11:04:57
Writing application : mkvmerge v8.3.0 ('Over the Horizon') 64bit
Writing library : libebml v1.3.1 + libmatroska v1.4.2

Video
ID : 1
Format : AVC
Format/Info : Advanced Video Codec
Format profile : High@L4.1
Format settings : CABAC / 5 Ref Frames
Format settings, CABAC : Yes
Format settings, RefFrames : 5 frames
Codec ID : V_MPEG4/ISO/AVC
Duration : 1 h 30 min
Bit rate : 4 829 kb/s
Width : 1 920 pixels
Height : 800 pixels
Display aspect ratio : 2.40:1
Frame rate mode : Constant
Frame rate : 23.976 (24000/1001) FPS
Color space : YUV
Chroma subsampling : 4:2:0
Bit depth : 8 bits
Scan type : Progressive
Bits/(Pixel*Frame) : 0.131
Stream size : 3.05 GiB (68%)
Writing library : x264 core 152 r2851 ba24899
Encoding settings : cabac=1 / ref=5 / deblock=1:-1:-1 / analyse=0x3:0x113 / me=umh / subme=7 / psy=1 / psy_rd=1.00:0.15 / mixed_ref=1 / me_range=16 / chroma_me=1 / trellis=1 / 8x8dct=1 / cqm=0 / deadzone=21,11 / fast_pskip=0 / chroma_qp_offset=-3 / threads=18 / lookahead_threads=3 / sliced_threads=0 / nr=0 / decimate=1 / interlaced=0 / bluray_compat=0 / constrained_intra=0 / bframes=3 / b_pyramid=2 / b_adapt=1 / b_bias=0 / direct=1 / weightb=1 / open_gop=0 / weightp=2 / keyint=250 / keyint_min=23 / scenecut=40 / intra_refresh=0 / rc_lookahead=40 / rc=crf / mbtree=1 / crf=20.0 / qcomp=0.60 / qpmin=0 / qpmax=69 / qpstep=4 / ip_ratio=1.40 / aq=1:1.00
Language : English
Default : Yes
Forced : No

Audio #1
ID : 2
Format : DTS
Format/Info : Digital Theater Systems
Mode : 16
Format settings, Endianness : Big
Codec ID : A_DTS
Duration : 1 h 30 min
Bit rate mode : Constant
Bit rate : 768 kb/s
Channel(s) : 6 channels
Channel positions : Front: L C R, Side: L R, LFE
Sampling rate : 48.0 kHz
Frame rate : 93.750 FPS (512 SPF)
Bit depth : 24 bits
Compression mode : Lossy
Stream size : 497 MiB (11%)
Language : German
Default : Yes
Forced : No

Audio #2
ID : 3
Format : DTS
Format/Info : Digital Theater Systems
Format profile : ES Matrix / Core
Mode : 16
Format settings, Endianness : Big
Codec ID : A_DTS
Duration : 1 h 30 min
Bit rate mode : Constant
Bit rate : 1 509 kb/s
Channel(s) : 7 channels / 6 channels
Channel positions : Front: L C R, Side: L R, Back: C, LFE / Front: L C R, Side: L R, LFE
Sampling rate : 48.0 kHz
Frame rate : 93.750 FPS (512 SPF)
Bit depth : 24 bits
Compression mode : Lossy
Stream size : 977 MiB (21%)
Language : English
Default : No
Forced : No

Text
ID : 4
Format : UTF-8
Codec ID : S_TEXT/UTF8
Codec ID/Info : UTF-8 Plain Text
Duration : 1 h 29 min
Bit rate : 0 b/s
Count of elements : 9
Stream size : 336 Bytes (0%)
Title : German forced
Language : German
Default : Yes
Forced : Yes

Menu
00:00:00.000 : en:00:00:00.000
00:03:27.833 : en:00:03:27.833
00:05:44.219 : en:00:05:44.219
00:08:34.097 : en:00:08:34.097
00:12:26.120 : en:00:12:26.120
00:16:27.403 : en:00:16:27.403
00:21:22.281 : en:00:21:22.281
00:25:15.597 : en:00:25:15.597
00:29:30.811 : en:00:29:30.811
00:33:22.334 : en:00:33:22.334
00:38:31.142 : en:00:38:31.142
00:42:01.185 : en:00:42:01.185
00:46:11.978 : en:00:46:11.978
00:49:14.201 : en:00:49:14.201
00:53:37.798 : en:00:53:37.798
00:56:13.036 : en:00:56:13.036
00:58:52.904 : en:00:58:52.904
01:00:59.698 : en:01:00:59.698
01:03:53.997 : en:01:03:53.997
01:06:53.343 : en:01:06:53.343
01:14:02.104 : en:01:14:02.104
01:17:14.839 : en:01:17:14.839
01:19:43.612 : en:01:19:43.612
01:22:43.834 : en:01:22:43.834





Mädelstrip (2017)


Mädelstrip (2017)


Mädelstrip (2017)


Mädelstrip (2017)


Mädelstrip (2017)