Subcategories

Mais Forte que o Mundo A Hist ria de José Aldo / Mais Forte que o Mundo: A História de José Aldo (2016)

Posted By: EXGenerator
Mais Forte que o Mundo A Hist  ria de José Aldo / Mais Forte que o Mundo: A História de José Aldo (2016)

Mais Forte que o Mundo A Hist ria de José Aldo / Mais Forte que o Mundo: A História de José Aldo (2016)
WEBRip | AVI | 2h 4mn | 720x408 | XVID@1438 Kbps | French | MP3@128 Kpbs | 2 channels | Subtitles: None | 1.37 GB
Genre: Action, Biography, Drama

Dans ce film biographique, José Aldo, élevé à la dure et né pour se battre, fait face à ses propres démons alors qu'il se hisse au rang de champion des arts martiaux.


Video
ID : 0
Format : MPEG-4 Visual
Format profile : Advanced Simple@L5
Format settings, BVOP : 1
Format settings, QPel : No
Format settings, GMC : No warppoints
Format settings, Matrix : Default (H.263)
Muxing mode : Packed bitstream
Codec ID : XVID
Codec ID/Hint : XviD
Duration : 2 h 4 min
Bit rate : 1 438 kb/s
Width : 720 pixels
Height : 408 pixels
Display aspect ratio : 16:9
Frame rate : 24.000 FPS
Color space : YUV
Chroma subsampling : 4:2:0
Bit depth : 8 bits
Scan type : Progressive
Compression mode : Lossy
Bits/(Pixel*Frame) : 0.204
Stream size : 1.25 GiB (91%)
Writing library : XviD 1.2.1 (UTC 2008-12-04)

Audio
ID : 1
Format : MPEG Audio
Format version : Version 1
Format profile : Layer 3
Mode : Joint stereo
Mode extension : MS Stereo
Codec ID : 55
Codec ID/Hint : MP3
Duration : 2 h 4 min
Bit rate mode : Constant
Bit rate : 128 kb/s
Channel(s) : 2 channels
Sampling rate : 44.1 kHz
Compression mode : Lossy
Stream size : 114 MiB (8%)
Alignment : Aligned on interleaves
Interleave, duration : 167 ms (4.00 video frames)
Interleave, preload duration : 208 ms
Title : m
Writing library : LAME3.99r
Encoding settings : -m j -V 4 -q 2 -lowpass 17 -b 128


WEBRip screenshots

Mais Forte que o Mundo A Hist  ria de José Aldo / Mais Forte que o Mundo: A História de José Aldo (2016)

Mais Forte que o Mundo A Hist  ria de José Aldo / Mais Forte que o Mundo: A História de José Aldo (2016)

Mais Forte que o Mundo A Hist  ria de José Aldo / Mais Forte que o Mundo: A História de José Aldo (2016)

Mais Forte que o Mundo A Hist  ria de José Aldo / Mais Forte que o Mundo: A História de José Aldo (2016)