Making a Killing: Guns, Greed, and the NRA (2016)

Posted By: JohnSmith
1080p (FullHD) / WEB-DL IMDb
Making a Killing: Guns, Greed, and the NRA (2016)

Making a Killing: Guns, Greed, and the NRA (2016)
HDRip | MP4 / AVC@1100 kb/s | 720x400 | 1h 43mn | 915 MB | English: AAC, 128 kb/s (2 ch)
WEB-DL 1080p | MKV / AVC@6650 kb/s | 1920x1080 | 1h 43mn | 4.99 GB
English: AC3, 224 kb/s (2 ch) | Subtitles: English
Genre: Documentary

Making a Killing: Guns, Greed, and The NRA tells the stories of how guns, and the billions made off of them, affect the lives of everyday Americans. It features personal stories from people across the country who have been affected by gun violence, including survivors and victims' families. The film exposes how the powerful gun companies and the NRA are resisting responsible legislation for the sake of profit - and thereby putting people in danger. The film looks into gun tragedies that include unintentional shootings, domestic violence, suicides, mass shootings and trafficking - and what we can do to put an end to this profit-driven crisis.




General
Complete name : D:\Downloads\Making.a.Killing.Guns.Greed.and.the.NRA.2016.WEBRip.x264-RARBG\Making.a.Killing.Guns.Greed.and.the.NRA.2016.WEBRip.x264-RARBG.mp4
Format : MPEG-4
Format profile : Base Media
Codec ID : isom (isom/iso2/avc1/mp41)
File size : 915 MiB
Duration : 1 h 43 min
Overall bit rate : 1 232 kb/s
Movie name : RARBG - Making.a.Killing.Guns.Greed.and.the.NRA.2016.WEBRip.x264-RARBG
Encoded date : UTC 2017-12-04 11:59:19
Tagged date : UTC 2017-12-04 11:59:19
Writing application : Lavf57.71.100
Comment : RARBG - Making.a.Killing.Guns.Greed.and.the.NRA.2016.WEBRip.x264-RARBG

Video
ID : 1
Format : AVC
Format/Info : Advanced Video Codec
Format profile : High@L3.1
Format settings, CABAC : Yes
Format settings, ReFrames : 5 frames
Codec ID : avc1
Codec ID/Info : Advanced Video Coding
Duration : 1 h 43 min
Bit rate : 1 100 kb/s
Width : 720 pixels
Height : 400 pixels
Display aspect ratio : 16:9
Frame rate mode : Constant
Frame rate : 23.976 (24000/1001) FPS
Color space : YUV
Chroma subsampling : 4:2:0
Bit depth : 8 bits
Scan type : Progressive
Bits/(Pixel*Frame) : 0.159
Stream size : 816 MiB (89%)
Title : RARBG - Making.a.Killing.Guns.Greed.and.the.NRA.2016.WEBRip.x264-RARBG
Writing library : x264 core 152 r2851M ba24899
Encoding settings : cabac=1 / ref=5 / deblock=1:-1:-1 / analyse=0x3:0x113 / me=umh / subme=9 / psy=1 / psy_rd=1.00:0.15 / mixed_ref=1 / me_range=16 / chroma_me=1 / trellis=2 / 8x8dct=1 / cqm=0 / deadzone=21,11 / fast_pskip=1 / chroma_qp_offset=-3 / threads=12 / lookahead_threads=1 / sliced_threads=0 / nr=0 / decimate=1 / interlaced=0 / bluray_compat=0 / constrained_intra=0 / bframes=3 / b_pyramid=2 / b_adapt=2 / b_bias=0 / direct=3 / weightb=1 / open_gop=0 / weightp=2 / keyint=250 / keyint_min=23 / scenecut=40 / intra_refresh=0 / rc_lookahead=50 / rc=abr / mbtree=1 / bitrate=1100 / ratetol=1.0 / qcomp=0.60 / qpmin=0 / qpmax=69 / qpstep=4 / ip_ratio=1.40 / aq=1:1.00
Encoded date : UTC 2017-12-04 11:59:19
Tagged date : UTC 2017-12-04 11:59:19

Audio
ID : 2
Format : AAC
Format/Info : Advanced Audio Codec
Format profile : LC
Codec ID : 40
Duration : 1 h 43 min
Bit rate mode : Constant
Bit rate : 128 kb/s
Channel(s) : 2 channels
Channel positions : Front: L R
Sampling rate : 48.0 kHz
Frame rate : 46.875 FPS (1024 spf)
Compression mode : Lossy
Stream size : 95.1 MiB (10%)
Title : RARBG - Making.a.Killing.Guns.Greed.and.the.NRA.2016.WEBRip.x264-RARBG
Language : English
Default : Yes
Alternate group : 1
Encoded date : UTC 2017-12-04 11:59:19
Tagged date : UTC 2017-12-04 11:59:19





General
Unique ID : 191050398610399939161729737101540662749 (0x8FBAF7E6400ABA9D9A50265D26851DDD)
Complete name : D:\Downloads\Making.a.Killing.Guns.Greed.and.the.NRA.2016.1080p.Amazon.WEB-DL.DD+2.0.H.264-QOQ.mkv
Format : Matroska
Format version : Version 4 / Version 2
File size : 4.99 GiB
Duration : 1 h 43 min
Overall bit rate mode : Variable
Overall bit rate : 6 875 kb/s
Encoded date : UTC 2017-12-03 20:09:41
Writing application : mkvmerge v13.0.0 ('The Juggler') 64bit
Writing library : libebml v1.3.4 + libmatroska v1.4.5

Video
ID : 1
Format : AVC
Format/Info : Advanced Video Codec
Format profile : High@L4
Format settings, CABAC : Yes
Format settings, ReFrames : 4 frames
Codec ID : V_MPEG4/ISO/AVC
Duration : 1 h 43 min
Bit rate mode : Variable
Bit rate : 6 649 kb/s
Maximum bit rate : 15.0 Mb/s
Width : 1 920 pixels
Height : 1 080 pixels
Display aspect ratio : 16:9
Frame rate mode : Constant
Frame rate : 23.976 (24000/1001) FPS
Color space : YUV
Chroma subsampling : 4:2:0
Bit depth : 8 bits
Scan type : Progressive
Bits/(Pixel*Frame) : 0.134
Stream size : 4.82 GiB (97%)
Default : Yes
Forced : No
Color range : Limited
Color primaries : BT.709
Transfer characteristics : BT.709
Matrix coefficients : BT.709

Audio
ID : 2
Format : E-AC-3
Format/Info : Enhanced Audio Coding 3
Format settings, Endianness : Big
Codec ID : A_EAC3
Duration : 1 h 43 min
Bit rate mode : Constant
Bit rate : 224 kb/s
Channel(s) : 2 channels
Channel positions : Front: L R
Sampling rate : 48.0 kHz
Frame rate : 187.500 FPS (256 spf)
Compression mode : Lossy
Stream size : 166 MiB (3%)
Language : English
Service kind : Complete Main
Default : Yes
Forced : No

Text
ID : 3
Format : UTF-8
Codec ID : S_TEXT/UTF8
Codec ID/Info : UTF-8 Plain Text
Duration : 1 h 41 min
Bit rate : 83 b/s
Count of elements : 1530
Stream size : 62.3 KiB (0%)
Language : English
Default : No
Forced : No




Screenshots HDRip

Making a Killing: Guns, Greed, and the NRA (2016)

Making a Killing: Guns, Greed, and the NRA (2016)

Making a Killing: Guns, Greed, and the NRA (2016)


Screenshots WEB-DL 1080p

Making a Killing: Guns, Greed, and the NRA (2016)

Making a Killing: Guns, Greed, and the NRA (2016)

Making a Killing: Guns, Greed, and the NRA (2016)