BBC - Man of Steel: Sanjeev Gupta (2017)

Posted By: notbanned
720p (HD) / HDTV
BBC - Man of Steel: Sanjeev Gupta (2017)

BBC - Man of Steel: Sanjeev Gupta (2017)
HDTV | 1280x720 | .MP4/AVC @ 2323 Kbps | 49 min 3 s | 850 MiB
Audio: English AAC 93.4 kbps, 2 channels | Subs: None
Genre: Documentary

Global business tycoon Sanjeev Gupta shot to fame as the mystery bidder in the controversial Tata Port Talbot sale. With the world in the midst of a global steel crisis, he emerged as the saviour of the British steel industry, buying up failing companies all cover the UK without ever sacking the workers. With unprecedented access to the man behind the headlines, BBC business correspondent Brian Meechan follows the self-made steel baron at work, at home and on a mission to reignite a dying industry. A year on from being thrust into the limelight, his story takes us from the industrial heartlands of steel production to the glamour of the Abu Dhabi Grand Prix. After moving his young family from the luxury of Dubai to Newport, south Wales, we see how one man's personal obsession with a rusty old steelworks in the Gwent Valleys became the start of a global takeover.


General
Complete name : Man.of.Steel.Sanjeev.Gupta.2017.720p.mp4
Format : MPEG-4
Format profile : Base Media
Codec ID : isom (isom/iso2/avc1/mp41)
File size : 850 MiB
Duration : 49 min 3 s
Overall bit rate mode : Variable
Overall bit rate : 2 422 kb/s

Video
ID : 1
Format : AVC
Format/Info : Advanced Video Codec
Format profile : High@L4.1
Format settings, CABAC : Yes
Format settings, ReFrames : 2 frames
Codec ID : avc1
Codec ID/Info : Advanced Video Coding
Duration : 49 min 3 s
Bit rate mode : Variable
Bit rate : 2 323 kb/s
Maximum bit rate : 3 500 kb/s
Width : 1 280 pixels
Height : 720 pixels
Display aspect ratio : 16:9
Frame rate mode : Constant
Frame rate : 25.000 FPS
Color space : YUV
Chroma subsampling : 4:2:0
Bit depth : 8 bits
Scan type : Progressive
Bits/(Pixel*Frame) : 0.101
Stream size : 815 MiB (96%)

Audio
ID : 2
Format : AAC
Format/Info : Advanced Audio Codec
Format profile : LC
Codec ID : 40
Duration : 49 min 3 s
Bit rate mode : Variable
Bit rate : 93.4 kb/s
Maximum bit rate : 102 kb/s
Channel(s) : 2 channels
Channel positions : Front: L R
Sampling rate : 48.0 kHz
Frame rate : 46.875 FPS (1024 spf)
Compression mode : Lossy
Stream size : 32.8 MiB (4%)
Default : Yes
Alternate group : 1


Screenshots:

BBC - Man of Steel: Sanjeev Gupta (2017)

BBC - 			  		 	 	  		 	    	 			   		   	  			  	  		 		   	 			   		   	  		   	  		      	 			   		  	   		  	   		  	 			 Man of Steel: Sanjeev Gupta (2017)

BBC - Man of Steel: Sanjeev Gupta (2017)

BBC - Man of Steel: Sanjeev Gupta (2017)