BBC - Manchester: The Night of the Bomb (2018)

Posted By: notbanned
1080p (FullHD) / HDTV
BBC - Manchester: The Night of the Bomb (2018)

BBC - Manchester: The Night of the Bomb (2018)
HDTV | 1920x808 | .MKV/AVC @ 2422 Kbps | 59 min 1 s | 1.18 GiB
Audio: English AC3 384 kbps, 2 channels | Subs: English
Genre: Documentary

On 22 May 2017, a Manchester-born man detonated a homemade bomb at an Ariana Grande pop concert, killing 22 people and himself. It was Britain's deadliest terrorist attack since 7/7. The documentary tells the story of that night in forensic detail, through the eyes of teenage girls who survived the attack and key members of the emergency services. It features unseen mobile phone video and unheard audio recordings. The film also explores the identity and motives of the suicide bomber. Featuring interviews with counter-terrorism police and Manchester residents, the film sheds light on what may have led Salman Abedi, a 22-year-old Manchester boy of Libyan parentage, to target a group of children attending a concert celebrating the independence and empowerment of young women.

General
Complete name : Manchester.The.Night.Of.The.Bomb.2018.1080p.mkv
Format : Matroska
Format version : Version 4 / Version 2
File size : 1.18 GiB
Duration : 59 min 1 s
Overall bit rate : 2 863 kb/s

Video
ID : 1
Format : AVC
Format/Info : Advanced Video Codec
Format profile : High@L4.2
Format settings, CABAC : Yes
Format settings, ReFrames : 4 frames
Codec ID : V_MPEG4/ISO/AVC
Duration : 59 min 1 s
Bit rate : 2 422 kb/s
Width : 1 920 pixels
Height : 808 pixels
Display aspect ratio : 2.40:1
Frame rate mode : Constant
Frame rate : 25.000 FPS
Color space : YUV
Chroma subsampling : 4:2:0
Bit depth : 8 bits
Scan type : Progressive
Bits/(Pixel*Frame) : 0.062
Stream size : 1 022 MiB (85%)
Encoding settings : cabac=1 / ref=4 / deblock=1:0:0 / analyse=0x3:0x113 / me=hex / subme=8 / psy=1 / psy_rd=1.00:0.00 / mixed_ref=1 / me_range=16 / chroma_me=1 / trellis=2 / 8x8dct=1 / cqm=0 / deadzone=21,11 / fast_pskip=1 / chroma_qp_offset=-2 / threads=12 / lookahead_threads=2 / sliced_threads=0 / nr=0 / decimate=1 / interlaced=0 / bluray_compat=0 / constrained_intra=0 / bframes=3 / b_pyramid=2 / b_adapt=1 / b_bias=0 / direct=3 / weightb=1 / open_gop=0 / weightp=2 / keyint=250 / keyint_min=25 / scenecut=40 / intra_refresh=0 / rc_lookahead=50 / rc=crf / mbtree=1 / crf=21.0 / qcomp=0.60 / qpmin=0 / qpmax=69 / qpstep=4 / ip_ratio=1.40 / aq=1:1.00
Language : English
Default : Yes
Forced : No
Color range : Limited
Matrix coefficients : BT.709

Audio
ID : 2
Format : AC-3
Format/Info : Audio Coding 3
Format settings, Endianness : Big
Codec ID : A_AC3
Duration : 59 min 1 s
Bit rate mode : Constant
Bit rate : 384 kb/s
Channel(s) : 2 channels
Channel positions : Front: L R
Sampling rate : 48.0 kHz
Frame rate : 31.250 FPS (1536 spf)
Bit depth : 16 bits
Compression mode : Lossy
Stream size : 162 MiB (13%)
Language : English
Service kind : Complete Main
Default : Yes
Forced : No

Text
ID : 3
Format : UTF-8
Codec ID : S_TEXT/UTF8
Codec ID/Info : UTF-8 Plain Text
Language : English
Default : No
Forced : No


Screenshots:

BBC - Manchester: The Night of the Bomb (2018)

BBC - Manchester: The Night of the Bomb (2018)

BBC - Manchester: The Night of the Bomb (2018)

BBC - Manchester: The Night of the Bomb (2018)