Subcategories

BBC Horizon - Mars: A Travellers Guide (2017)

Posted By: Tutorial
BBC Horizon - Mars: A Travellers Guide (2017)

BBC Horizon - Mars: A Travellers Guide (2017)
HDTV | 1920 x 1080 | .MKV/AVC @ 3746 Kbps | 59 min 5 s | 1.60 GB
Audio: English AAC 132 Kbps, 2 channels | Subs: English
Genre: Documentary, Science

The dream of sending humans to Mars is closer than ever before. In fact, many scientists think that the first person to set foot on the Red Planet is alive today. But where should the first explorers visit when they get there? Horizon has gathered the world's leading experts on Mars and asked them where would they go if they got the chance - and what would they need to survive?
Using incredible real images and data, Horizon brings these Martian landmarks to life - from vast plains to towering volcanoes, from deep valleys to hidden underground caverns. This film also shows where to land, where to live and even where to hunt for traces of extraterrestrial life.

Related Documentaries:
First Orbit (2011)
Fight for Space (2016)
IMAX - Roving Mars (2006)
Mars: Quest for Life (2008)
The Mars Underground (2007)
BBC - The Search for a New Earth (2017)
BBC - The Big Think: Should We Go to Mars (2017)
The Wonder of It All (2007)
ABC - Life of a Universe (2017)
The Dark Side of the Sun (2017)
BBC The Sky at Night - Mariner to Mars (1969)
BBC - Wonders of the Universe (2011)
BBC - Wonders of the Solar System (2010)

General
Unique ID : 207378671774222611856500836404331632335 (0x9C03ADEBD45ABB06908B0DF13F0556CF)
Complete name : BBC.Horizon.2017.Mars.A.Travellers.Guide.mkv
Format : Matroska
Format version : Version 4 / Version 2
File size : 1.60 GiB
Duration : 59 min 5 s
Overall bit rate : 3 879 kb/s
Movie name : Mars: A Travellers Guide
Encoded date : UTC 2017-09-13 11:33:30
Writing application : mkvmerge v15.0.0 ('Duel with the Devil') 64-bit
Writing library : libebml v1.3.5 + libmatroska v1.4.5

Video
ID : 1
Format : AVC
Format/Info : Advanced Video Codec
Format profile : High@L4.1
Format settings, CABAC : Yes
Format settings, ReFrames : 4 frames
Codec ID : V_MPEG4/ISO/AVC
Duration : 59 min 5 s
Bit rate : 3 746 kb/s
Width : 1 920 pixels
Height : 1 080 pixels
Display aspect ratio : 16:9
Frame rate mode : Constant
Frame rate : 25.000 FPS
Color space : YUV
Chroma subsampling : 4:2:0
Bit depth : 8 bits
Scan type : Progressive
Bits/(Pixel*Frame) : 0.072
Stream size : 1.55 GiB (97%)
Writing library : x264 core 152 r2851 MVGroup
Encoding settings : cabac=1 / ref=4 / deblock=1:0:0 / analyse=0x3:0x113 / me=umh / subme=9 / psy=1 / psy_rd=1.00:0.00 / mixed_ref=1 / me_range=32 / chroma_me=1 / trellis=1 / 8x8dct=1 / cqm=0 / deadzone=21,11 / fast_pskip=0 / chroma_qp_offset=-2 / threads=3 / lookahead_threads=1 / sliced_threads=0 / nr=0 / decimate=1 / interlaced=0 / bluray_compat=0 / constrained_intra=0 / bframes=6 / b_pyramid=2 / b_adapt=2 / b_bias=0 / direct=1 / weightb=1 / open_gop=0 / weightp=2 / keyint=250 / keyint_min=25 / scenecut=40 / intra_refresh=0 / rc_lookahead=40 / rc=crf / mbtree=1 / crf=22.0 / qcomp=0.60 / qpmin=0 / qpmax=69 / qpstep=4 / ip_ratio=1.40 / aq=1:1.00
Language : English
Default : Yes
Forced : No
Color range : Limited
Color primaries : BT.709
Transfer characteristics : BT.709
Matrix coefficients : BT.709

Audio
ID : 2
Format : AAC
Format/Info : Advanced Audio Codec
Format profile : LC
Codec ID : A_AAC
Duration : 59 min 5 s
Bit rate : 132 kb/s
Channel(s) : 2 channels
Channel positions : Front: L R
Sampling rate : 48.0 kHz
Frame rate : 46.875 FPS (1024 spf)
Compression mode : Lossy
Delay relative to video : 9 ms
Stream size : 55.3 MiB (3%)
Language : English
Default : Yes
Forced : No

Text
ID : 3
Format : UTF-8
Codec ID : S_TEXT/UTF8
Codec ID/Info : UTF-8 Plain Text
Duration : 58 min 24 s
Bit rate : 100 b/s
Count of elements : 903
Stream size : 43.0 KiB (0%)
Language : English
Default : No
Forced : No
Screenshots

BBC Horizon - Mars: A Travellers Guide (2017)

BBC Horizon - Mars: A Travellers Guide (2017)

BBC Horizon - Mars: A Travellers Guide (2017)

Welcome to my blog - daily update!

BBC Horizon - Mars: A Travellers Guide (2017)