Marvel's Agents of S.H.I.E.L.D. S04E22

Posted By: Tavaz
SD / WEBRip IMDb
Marvel's Agents of S.H.I.E.L.D. S04E22

Marvel's Agents of S.H.I.E.L.D. S04E22
WEBRip | MKV | 720x404 | German | H264 @ 647 kbps | AC-3 @ 384 kbps | 41 min 14 s | 311 MiB
Genre: Fantasy, Drama, Action, Adventure, Science Fiction

Agent Phil Coulson of S.H.I.E.L.D. (Strategic Homeland Intervention, Enforcement and Logistics Division) puts together a team of agents to investigate the new, the strange and the unknown around the globe, protecting the ordinary from the extraordinary.

AOS S04E22.mkv (310.5 MB)



General
Unique ID : 139951585569256414201118312404710967187 (0x6949B1E7AB20FD321A00FEB0B395C793)
Complete name : ./Ausschau nach Menschen mit Superkraeften S04E22 German/AOS S04E22.mkv
Format : Matroska
Format version : Version 2
File size : 311 MiB
Duration : 41 min 14 s
Overall bit rate : 1 053 kb/s
Movie name : Marvels.Agents.of.S.H.I.E.L.D.S04E22.World.s.End.GERMAN.DUBBED.WS.WebRip.x264-TVP
Encoded date : UTC 2017-12-08 20:48:22
Writing application : mkvmerge v5.6.0 ('Kenya Kane') built on May 28 2012 06:47:39
Writing library : libebml v1.2.2 + libmatroska v1.3.0

Video
ID : 1
Format : AVC
Format/Info : Advanced Video Codec
Format profile : High@L3.1
Format settings : CABAC / 8 Ref Frames
Format settings, CABAC : Yes
Format settings, RefFrames : 8 frames
Codec ID : V_MPEG4/ISO/AVC
Duration : 41 min 14 s
Bit rate : 648 kb/s
Width : 720 pixels
Height : 404 pixels
Display aspect ratio : 16:9
Frame rate mode : Constant
Frame rate : 25.000 FPS
Original frame rate : 23.976 (24000/1001) FPS
Color space : YUV
Chroma subsampling : 4:2:0
Bit depth : 8 bits
Scan type : Progressive
Bits/(Pixel*Frame) : 0.089
Stream size : 191 MiB (62%)
Title : tvp-shield-s04e22-480p
Writing library : x264 core 148 r2708 86b7198
Encoding settings : cabac=1 / ref=8 / deblock=1:-2:-2 / analyse=0x3:0x133 / me=umh / subme=9 / psy=1 / psy_rd=1.00:0.15 / mixed_ref=1 / me_range=16 / chroma_me=1 / trellis=2 / 8x8dct=1 / cqm=0 / deadzone=21,11 / fast_pskip=1 / chroma_qp_offset=-3 / threads=12 / lookahead_threads=1 / sliced_threads=0 / nr=0 / decimate=1 / interlaced=0 / bluray_compat=0 / constrained_intra=0 / bframes=3 / b_pyramid=2 / b_adapt=2 / b_bias=0 / direct=3 / weightb=1 / open_gop=0 / weightp=2 / keyint=240 / keyint_min=24 / scenecut=40 / intra_refresh=0 / rc_lookahead=60 / rc=crf / mbtree=1 / crf=19.0 / qcomp=0.60 / qpmin=0 / qpmax=69 / qpstep=4 / vbv_maxrate=17500 / vbv_bufsize=17500 / crf_max=0.0 / nal_hrd=none / filler=0 / ip_ratio=1.40 / aq=1:1.00
Language : German
Default : Yes
Forced : Yes
Color range : Limited
Color primaries : BT.709
Transfer characteristics : BT.709
Matrix coefficients : BT.709

Audio
ID : 2
Format : AC-3
Format/Info : Audio Coding 3
Format settings, Endianness : Big
Codec ID : A_AC3
Duration : 41 min 14 s
Bit rate mode : Constant
Bit rate : 384 kb/s
Channel(s) : 6 channels
Channel positions : Front: L C R, Side: L R, LFE
Sampling rate : 48.0 kHz
Frame rate : 31.250 FPS (1536 SPF)
Bit depth : 16 bits
Compression mode : Lossy
Stream size : 113 MiB (36%)
Language : German
Service kind : Complete Main
Default : Yes
Forced : Yes





Marvel's Agents of S.H.I.E.L.D. S04E22


Marvel's Agents of S.H.I.E.L.D. S04E22


Marvel's Agents of S.H.I.E.L.D. S04E22


Marvel's Agents of S.H.I.E.L.D. S04E22


Marvel's Agents of S.H.I.E.L.D. S04E22

All episodes