Mary and the Witch's Flower (2017)

Posted By: Tavaz
720p (HD) / BDRip IMDb
Mary and the Witch's Flower (2017)

Mary and the Witch's Flower (2017)
BDRip | MKV | 1280x692 | Japanese | H264 @ 4120 kbps | AC-3 @ 640 kbps | 1 h 42 min | 3.43 GiB
Subtitles: Japanese, English
Genre: Adventure, Animation, Fantasy

A young girl named Mary discovers that she has a mysterious power to become a witch which lasts for one night only.

f8528368e4a54134a4ff863cef64c491.mkv (3.4 GB)



General
Complete name : ./f8528368e4a54134a4ff863cef64c491.mkv
Format : Matroska
Format version : Version 1
File size : 3.43 GiB
Duration : 1 h 42 min
Overall bit rate : 4 774 kb/s
Encoded date : UTC 2018-03-24 21:22:29
Writing application : mkvmerge v21.0.0 ('Tardigrades Will Inherit The Earth') 64-bit
Writing library : libebml v1.3.5 + libmatroska v1.4.8

Video
ID : 1
Format : AVC
Format/Info : Advanced Video Codec
Format profile : High@L4.1
Format settings : CABAC / 9 Ref Frames
Format settings, CABAC : Yes
Format settings, RefFrames : 9 frames
Codec ID : V_MPEG4/ISO/AVC
Duration : 1 h 42 min
Bit rate : 4 120 kb/s
Width : 1 280 pixels
Height : 692 pixels
Display aspect ratio : 1.85:1
Frame rate mode : Constant
Frame rate : 23.976 (24000/1001) FPS
Color space : YUV
Chroma subsampling : 4:2:0
Bit depth : 8 bits
Scan type : Progressive
Bits/(Pixel*Frame) : 0.194
Stream size : 2.96 GiB (86%)
Writing library : x264 core 155 r2901 7d0ff22
Encoding settings : cabac=1 / ref=9 / deblock=1:-3:-3 / analyse=0x3:0x133 / me=tesa / subme=11 / psy=1 / psy_rd=0.90:0.00 / mixed_ref=1 / me_range=32 / chroma_me=1 / trellis=2 / 8x8dct=1 / cqm=0 / deadzone=21,11 / fast_pskip=0 / chroma_qp_offset=-2 / threads=12 / lookahead_threads=3 / sliced_threads=0 / nr=0 / decimate=1 / interlaced=0 / bluray_compat=0 / constrained_intra=0 / bframes=16 / b_pyramid=2 / b_adapt=2 / b_bias=0 / direct=3 / weightb=1 / open_gop=0 / weightp=2 / keyint=250 / keyint_min=23 / scenecut=40 / intra_refresh=0 / rc_lookahead=250 / rc=crf / mbtree=1 / crf=14.0 / qcomp=0.65 / qpmin=0 / qpmax=69 / qpstep=4 / vbv_maxrate=62500 / vbv_bufsize=78125 / crf_max=0.0 / nal_hrd=none / filler=0 / ip_ratio=1.30 / aq=1:0.77
Default : Yes
Forced : No
Color range : Limited
Color primaries : BT.709
Transfer characteristics : BT.709
Matrix coefficients : BT.709

Audio
ID : 2
Format : AC-3
Format/Info : Audio Coding 3
Format settings, Endianness : Big
Codec ID : A_AC3
Duration : 1 h 42 min
Bit rate mode : Constant
Bit rate : 640 kb/s
Channel(s) : 6 channels
Channel positions : Front: L C R, Side: L R, LFE
Sampling rate : 48.0 kHz
Frame rate : 31.250 FPS (1536 SPF)
Bit depth : 16 bits
Compression mode : Lossy
Stream size : 471 MiB (13%)
Language : Japanese
Service kind : Complete Main
Default : Yes
Forced : No

Text #1
ID : 3
Format : UTF-8
Codec ID : S_TEXT/UTF8
Codec ID/Info : UTF-8 Plain Text
Duration : 1 h 42 min
Bit rate : 36 b/s
Count of elements : 1014
Stream size : 27.0 KiB (0%)
Language : English
Default : Yes
Forced : No

Text #2
ID : 4
Format : PGS
Muxing mode : zlib
Codec ID : S_HDMV/PGS
Codec ID/Info : Picture based subtitle format used on BDs/HD-DVDs
Duration : 1 h 41 min
Bit rate : 15.6 kb/s
Count of elements : 3196
Stream size : 11.4 MiB (0%)
Language : Japanese
Default : No
Forced : No

Menu
00:00:00.000 : en:Chapter 1
00:02:46.375 : en:Chapter 2
00:04:12.586 : en:Chapter 3
00:06:44.696 : en:Chapter 4
00:10:22.914 : en:Chapter 5
00:15:35.601 : en:Chapter 6
00:17:37.932 : en:Chapter 7
00:18:45.666 : en:Chapter 8
00:20:54.753 : en:Chapter 9
00:25:37.911 : en:Chapter 10
00:29:44.074 : en:Chapter 11
00:36:10.043 : en:Chapter 12
00:42:03.604 : en:Chapter 13
00:44:16.737 : en:Chapter 14
00:48:06.717 : en:Chapter 15
00:51:04.144 : en:Chapter 16
00:56:40.022 : en:Chapter 17
01:00:12.692 : en:Chapter 18
01:05:13.868 : en:Chapter 19
01:12:01.192 : en:Chapter 20
01:13:22.648 : en:Chapter 21
01:16:42.932 : en:Chapter 22
01:21:08.906 : en:Chapter 23
01:23:39.014 : en:Chapter 24
01:27:32.372 : en:Chapter 25
01:34:52.353 : en:Chapter 26
01:37:38.352 : en:Chapter 27





Mary and the Witch's Flower (2017)


Mary and the Witch's Flower (2017)


Mary and the Witch's Flower (2017)


Mary and the Witch's Flower (2017)


Mary and the Witch's Flower (2017)