BBC - Mary Magdalene: Art's Scarlet Woman (2017)

Posted By: notbanned
720p (HD) / WEB-DL IMDb
BBC - Mary Magdalene: Art's Scarlet Woman (2017)

BBC - Mary Magdalene: Art's Scarlet Woman (2017)
WEB-DL | 1280x720 | .MP4/AVC @ 2294 Kbps | 59 min 17 s | 1.08 GiB
Audio: English AAC 317 kbps, 2 channels | Subs: English
Genre: Documentary

Waldemar Januszczak explores the impact of Mary Magdalene's myth on art and artists. All saints in art are inventions, but no saint in art has been invented quite as furiously as Mary Magdalene. For a thousand years, artists have been throwing themselves at the task of describing her and telling her story, from Caravaggio to Cezanne, Rubens to Rembrandt, Titian to van Gogh. Her identity has evolved from being the close follower of Jesus who was the first witness to his resurrection, to one of a prostitute and sinner who escaped from persecution in the Holy Land by fleeing across the Mediterranean to end up living in a cave as a hermit in the south of France, enjoying ecstatic experiences with Christ.

General
Complete name : Mary.Magdalen.Arts.Scarlet.Woman.2017.720p.mp4
Format : MPEG-4
Format profile : Base Media / Version 2
Codec ID : mp42 (mp42/isom)
File size : 1.08 GiB
Duration : 59 min 17 s
Overall bit rate mode : Variable
Overall bit rate : 2 615 kb/s

Video
ID : 2
Format : AVC
Format/Info : Advanced Video Codec
Format profile : High@L4.1
Format settings, CABAC : Yes
Format settings, ReFrames : 2 frames
Codec ID : avc1
Codec ID/Info : Advanced Video Coding
Duration : 59 min 17 s
Bit rate mode : Variable
Bit rate : 2 294 kb/s
Maximum bit rate : 3 500 kb/s
Width : 1 280 pixels
Height : 720 pixels
Display aspect ratio : 16:9
Frame rate mode : Constant
Frame rate : 25.000 FPS
Color space : YUV
Chroma subsampling : 4:2:0
Bit depth : 8 bits
Scan type : Progressive
Bits/(Pixel*Frame) : 0.100
Stream size : 973 MiB (88%)
Encoded date : UTC 2018-03-23 07:22:21
Tagged date : UTC 2018-03-23 07:23:48

Audio
ID : 1
Format : AAC
Format/Info : Advanced Audio Codec
Format profile : LC
Codec ID : 40
Duration : 59 min 16 s
Bit rate mode : Constant
Bit rate : 317 kb/s
Channel(s) : 2 channels
Channel positions : Front: L R
Sampling rate : 48.0 kHz
Frame rate : 46.875 FPS (1024 spf)
Compression mode : Lossy
Stream size : 135 MiB (12%)
Language : English
Default : Yes
Alternate group : 1
Encoded date : UTC 2018-03-23 07:22:21
Tagged date : UTC 2018-03-23 07:23:48

Text
ID : 3
Format : Timed Text
Muxing mode : sbtl
Codec ID : tx3g
Duration : 58 min 43 s
Bit rate mode : Variable
Bit rate : 75 b/s
Stream size : 32.3 KiB (0%)
Language : English
Default : Yes
Forced : No
Alternate group : 2
Encoded date : UTC 2018-03-23 07:22:21
Tagged date : UTC 2018-03-23 07:22:21


Screenshots:

BBC - Mary Magdalene: Art's Scarlet Woman (2017)

BBC - Mary Magdalene: Art's Scarlet Woman (2017)

BBC - Mary Magdalene: Art's Scarlet Woman (2017)

BBC - Mary Magdalene: Art's Scarlet Woman (2017)