Tags
Language
Tags

Masters of the Universe (1987)

Posted By: Tavaz
1080p (FullHD) / BDRip IMDb
Masters of the Universe (1987)

Masters of the Universe (1987)
BDRip | MKV | 1920x1080 | English | H264 @ 5760 kbps | AC-3 @ 192 kbps | 1 h 45 min | 4.52 GiB
Subtitles: English
Genre: Action, Adventure, Fantasy, Science Fiction, Thriller

The world of Eternia in the aftermath of Skeletor's war on Castle Grayskull, which he has won after seizing Grayskull and the surrounding city using a cosmic key developed by the locksmith Gwildor. The Sorceress is now Skeletor's prisoner and he begins to drain her life-force as he waits for the moon of Eternia to align with the Great Eye of the Universe that will bestow god-like power upon him.

41e863d8a0e1632e05889d17d27bf793.mkv (4.5 GB)



General
Unique ID : 167136801253681089438393302007305684799 (0x7DBD608552D59140F222B6471E9F473F)
Complete name : ./41e863d8a0e1632e05889d17d27bf793.mkv
Format : Matroska
Format version : Version 4 / Version 2
File size : 4.52 GiB
Duration : 1 h 45 min
Overall bit rate : 6 131 kb/s
Movie name : Masters.of.the.Universe.1987.1080p.BluRay.x264-nikt0
Encoded date : UTC 2020-11-25 22:15:53 / UTC 2020-11-25T00:11:27Z
Writing application : mkvmerge v47.0.0 ('Black Flag') 64-bit
Writing library : libebml v1.3.10 + libmatroska v1.5.2 / Lavf57.7.2

Video
ID : 1
Format : AVC
Format/Info : Advanced Video Codec
Format profile : High@L4
Format settings : CABAC / 4 Ref Frames
Format settings, CABAC : Yes
Format settings, RefFrames : 4 frames
Codec ID : V_MPEG4/ISO/AVC
Duration : 1 h 45 min
Bit rate : 5 760 kb/s
Width : 1 920 pixels
Height : 1 080 pixels
Display aspect ratio : 16:9
Frame rate mode : Constant
Frame rate : 23.976 (24000/1001) FPS
Color space : YUV
Chroma subsampling : 4:2:0
Bit depth : 8 bits
Scan type : Progressive
Bits/(Pixel*Frame) : 0.116
Stream size : 4.15 GiB (92%)
Writing library : x264 core 155 r2901 7d0ff22
Encoding settings : cabac=1 / ref=4 / deblock=1:-3:-3 / analyse=0x3:0x133 / me=umh / subme=9 / psy=1 / psy_rd=1.10:0.25 / mixed_ref=1 / me_range=32 / chroma_me=1 / trellis=2 / 8x8dct=1 / cqm=0 / deadzone=6,6 / fast_pskip=1 / chroma_qp_offset=-4 / threads=34 / lookahead_threads=3 / sliced_threads=0 / nr=0 / decimate=1 / interlaced=0 / bluray_compat=0 / constrained_intra=0 / bframes=6 / b_pyramid=2 / b_adapt=2 / b_bias=0 / direct=3 / weightb=1 / open_gop=0 / weightp=2 / keyint=240 / keyint_min=24 / scenecut=40 / intra_refresh=0 / rc_lookahead=40 / rc=2pass / mbtree=1 / bitrate=5760 / ratetol=1.0 / qcomp=0.60 / qpmin=0 / qpmax=69 / qpstep=4 / cplxblur=20.0 / qblur=0.5 / vbv_maxrate=20000 / vbv_bufsize=25000 / nal_hrd=none / filler=0 / ip_ratio=1.40 / aq=1:1.00
Language : English
Default : Yes
Forced : No
Color range : Limited
Color primaries : BT.709
Transfer characteristics : BT.709
Matrix coefficients : BT.709
Statistics Tags Issue : mkvmerge v47.0.0 ('Black Flag') 64-bit 2020-11-25 22:15:53 / mkvmerge v47.0.0 ('Black Flag') 64-bit 2020-11-25 22:15:53 / UTC 2020-11-25T00:11:27Z
FromStats_BitRate : 5745591
FromStats_Duration : 01:45:34.328000000
FromStats_FrameCount : 151872
FromStats_StreamSize : 4549307389

Audio #1
ID : 2
Format : AC-3
Format/Info : Audio Coding 3
Mode : Dolby Digital
Format settings, Endianness : Big
Codec ID : A_AC3
Duration : 1 h 45 min
Bit rate mode : Constant
Bit rate : 192 kb/s
Channel(s) : 2 channels
Channel positions : Front: L R
Sampling rate : 48.0 kHz
Frame rate : 31.250 FPS (1536 SPF)
Bit depth : 16 bits
Compression mode : Lossy
Stream size : 145 MiB (3%)
Title : Stereo
Language : English
Service kind : Complete Main
Default : No
Forced : No
Statistics Tags Issue : mkvmerge v47.0.0 ('Black Flag') 64-bit 2020-11-25 22:15:53 / mkvmerge v47.0.0 ('Black Flag') 64-bit 2020-11-25 22:15:53 / UTC 2020-11-25T00:11:27Z
FromStats_BitRate : 192000
FromStats_Duration : 01:45:35.328000000
FromStats_FrameCount : 197979
FromStats_StreamSize : 152047872

Audio #2
ID : 3
Format : AC-3
Format/Info : Audio Coding 3
Mode : Dolby Digital
Format settings, Endianness : Big
Codec ID : A_AC3
Duration : 1 h 45 min
Bit rate mode : Constant
Bit rate : 192 kb/s
Channel(s) : 2 channels
Channel positions : Front: L R
Sampling rate : 48.0 kHz
Frame rate : 31.250 FPS (1536 SPF)
Bit depth : 16 bits
Compression mode : Lossy
Stream size : 145 MiB (3%)
Title : Stereo commentary
Language : English
Service kind : Complete Main
Default : No
Forced : No
Statistics Tags Issue : mkvmerge v47.0.0 ('Black Flag') 64-bit 2020-11-25 22:15:53 / mkvmerge v47.0.0 ('Black Flag') 64-bit 2020-11-25 22:15:53 / UTC 2020-11-25T00:11:27Z
FromStats_BitRate : 192000
FromStats_Duration : 01:45:35.360000000
FromStats_FrameCount : 197980
FromStats_StreamSize : 152048640

Text
ID : 4
Format : UTF-8
Codec ID : S_TEXT/UTF8
Codec ID/Info : UTF-8 Plain Text
Language : English
Default : Yes
Forced : No
Statistics Tags Issue : mkvmerge v47.0.0 ('Black Flag') 64-bit 2020-11-25 22:15:53 / mkvmerge v47.0.0 ('Black Flag') 64-bit 2020-11-25 22:15:53 / UTC 2020-11-25T00:11:27Z
FromStats_BitRate : 55
FromStats_Duration : 01:44:51.577000000
FromStats_FrameCount : 1283
FromStats_StreamSize : 43623

Menu
00:00:00.000 : :Chapter 1
00:02:43.038 : :Chapter 2
00:05:24.366 : :Chapter 3
00:11:13.590 : :Chapter 4
00:16:43.628 : :Chapter 5
00:20:09.375 : :Chapter 6
00:24:34.473 : :Chapter 7
00:27:05.040 : :Chapter 8
00:29:45.409 : :Chapter 9
00:33:02.731 : :Chapter 10
00:36:56.214 : :Chapter 11
00:41:14.305 : :Chapter 12
00:42:21.748 : :Chapter 13
00:45:09.457 : :Chapter 14
00:50:12.468 : :Chapter 15
00:52:52.920 : :Chapter 16
00:55:44.216 : :Chapter 17
01:01:18.383 : :Chapter 18
01:04:30.450 : :Chapter 19
01:06:08.173 : :Chapter 20
01:10:49.746 : :Chapter 21
01:16:08.606 : :Chapter 22
01:21:12.076 : :Chapter 23
01:24:21.098 : :Chapter 24
01:26:53.667 : :Chapter 25
01:29:48.258 : :Chapter 26
01:33:01.159 : :Chapter 27
01:36:20.984 : :Chapter 28
01:39:06.649 : :Chapter 29
01:41:18.072 : :Chapter 30





Masters of the Universe (1987)


Masters of the Universe (1987)


Masters of the Universe (1987)


Masters of the Universe (1987)


Masters of the Universe (1987)