Tags
Language
Tags

Channel 4 - Max Clifford: The Fall of a Tabloid King (2021)

Posted By: Tutorial
1080p (FullHD) / HDTV
Channel 4 - Max Clifford: The Fall of a Tabloid King (2021)

Channel 4 - Max Clifford: The Fall of a Tabloid King (2021)
HDTV | 1920 x 960 | .MKV/HEVC @ 1295 Kbps | 1 h 8 min | 696 MB
Audio: English AAC 127 Kbps, 2 channels | Subs: English
Genre: Documentary

Publicist Max Clifford launched the careers of countless stars and had a celebrity client list that included the likes of Simon Cowell and Jade Goody, but also buried secrets and sold kiss-and-tells that ruined the careers of some of the most powerful people in the UK. All this made Clifford a hugely influential man who was rarely off our TV screens, but in 2014 he was jailed as part of Operation Yewtree's investigations into historic sex crimes. For the first time, the survivors of Clifford's crimes, women who were as young as 15 when he abused them, tell the story of the real Max Clifford - of the secret life he tried to bury, and the awful impact he had on their lives. There are also explosive revelations about Clifford and the industry that kept his secret for decades.

General
Unique ID : 285344825313861559928059226611986719712 (0xD6AB6A1327D4AEB89D1450707F97E3E0)
Complete name : Ch4.Max.Clifford.The.Fall.of.a.Tabloid.King.mkv
Format : Matroska
Format version : Version 4
File size : 696 MiB
Duration : 1 h 8 min
Overall bit rate : 1 424 kb/s
Movie name : Max Clifford: The Fall of a Tabloid King []
Encoded date : UTC 2021-03-02 23:05:45
Writing application : mkvmerge v54.0.0 ('F Maj Pixie') 64-bit
Writing library : libebml v1.4.2 + libmatroska v1.6.3

Video
ID : 1
Format : HEVC
Format/Info : High Efficiency Video Coding
Format profile : Main@L4@Main
Codec ID : V_MPEGH/ISO/HEVC
Duration : 1 h 8 min
Bit rate : 1 295 kb/s
Width : 1 920 pixels
Height : 960 pixels
Display aspect ratio : 2.000
Frame rate mode : Constant
Frame rate : 25.000 FPS
Color space : YUV
Chroma subsampling : 4:2:0
Bit depth : 8 bits
Bits/(Pixel*Frame) : 0.028
Stream size : 633 MiB (91%)
Writing library : x265 3.4+36-5239276dd:[Windows][MSVC 1928][64 bit] 8bit
Encoding settings : cpuid=1111039 / frame-threads=3 / numa-pools=12 / wpp / no-pmode / no-pme / no-psnr / no-ssim / log-level=2 / input-csp=1 / input-res=1920x960 / interlace=0 / total-frames=102540 / level-idc=0 / high-tier=1 / uhd-bd=0 / ref=3 / no-allow-non-conformance / no-repeat-headers / annexb / no-aud / no-hrd / info / hash=0 / no-temporal-layers / no-open-gop / min-keyint=25 / keyint=250 / gop-lookahead=12 / bframes=6 / b-adapt=2 / b-pyramid / bframe-bias=0 / rc-lookahead=20 / lookahead-slices=6 / scenecut=40 / hist-scenecut=0 / radl=0 / no-splice / no-intra-refresh / ctu=64 / min-cu-size=8 / no-rect / no-amp / max-tu-size=32 / tu-inter-depth=1 / tu-intra-depth=1 / limit-tu=0 / rdoq-level=0 / dynamic-rd=0.00 / no-ssim-rd / signhide / no-tskip / nr-intra=0 / nr-inter=0 / no-constrained-intra / strong-intra-smoothing / max-merge=3 / limit-refs=1 / no-limit-modes / me=2 / subme=2 / merange=48 / temporal-mvp / no-frame-dup / hme / Level / merange / L0,L1,L2=16,32,48 / weightp / weightb / no-analyze-src-pics / deblock=0:0 / sao / no-sao-non-deblock / rd=3 / selective-sao=4 / early-skip / rskip / no-fast-intra / no-tskip-fast / no-cu-lossless / b-intra / no-splitrd-skip / rdpenalty=0 / psy-rd=2.00 / psy-rdoq=0.00 / no-rd-refine / no-lossless / cbqpoffs=0 / crqpoffs=0 / rc=crf / crf=21.0 / qcomp=0.60 / qpstep=4 / stats-write=0 / stats-read=0 / ipratio=1.40 / pbratio=1.30 / aq-mode=4 / aq-strength=1.00 / cutree / zone-count=0 / no-strict-cbr / qg-size=32 / no-rc-grain / qpmax=69 / qpmin=0 / no-const-vbv / sar=1 / overscan=0 / videoformat=5 / range=0 / colorprim=1 / transfer=1 / colormatrix=1 / chromaloc=0 / display-window=0 / cll=0,0 / min-luma=0 / max-luma=255 / log2-max-poc-lsb=8 / vui-timing-info / vui-hrd-info / slices=1 / no-opt-qp-pps / no-opt-ref-list-length-pps / no-multi-pass-opt-rps / scenecut-bias=0.05 / hist-threshold=0.03 / no-opt-cu-delta-qp / no-aq-motion / no-hdr10 / no-hdr10-opt / no-dhdr10-opt / no-idr-recovery-sei / analysis-reuse-level=0 / analysis-save-reuse-level=0 / analysis-load-reuse-level=0 / scale-factor=0 / refine-intra=0 / refine-inter=0 / refine-mv=1 / refine-ctu-distortion=0 / no-limit-sao / ctu-info=0 / no-lowpass-dct / refine-analysis-type=0 / copy-pic=1 / max-ausize-factor=1.0 / no-dynamic-refine / no-single-sei / no-hevc-aq / no-svt / no-field / qp-adaptation-range=1.00 / scenecut-aware-qp=0conformance-window-offsets / right=0 / bottom=0 / decoder-max-rate=0 / no-vbv-live-multi-pass
Language : English
Default : Yes
Forced : No
Color range : Limited
Color primaries : BT.709
Transfer characteristics : BT.709
Matrix coefficients : BT.709

Audio
ID : 2
Format : AAC LC
Format/Info : Advanced Audio Codec Low Complexity
Codec ID : A_AAC-2
Duration : 1 h 8 min
Bit rate : 127 kb/s
Channel(s) : 2 channels
Channel layout : L R
Sampling rate : 48.0 kHz
Frame rate : 46.875 FPS (1024 SPF)
Compression mode : Lossy
Stream size : 62.2 MiB (9%)
Language : English
Default : Yes
Forced : No

Text
ID : 3
Format : UTF-8
Codec ID : S_TEXT/UTF8
Codec ID/Info : UTF-8 Plain Text
Duration : 1 h 8 min
Bit rate : 91 b/s
Count of elements : 1014
Stream size : 45.8 KiB (0%)
Language : English
Default : No
Forced : No
Screenshots

Channel 4 - Max Clifford: The Fall of a Tabloid King (2021)

Channel 4 - Max Clifford: The Fall of a Tabloid King (2021)

Welcome to my blog - daily update!
Channel 4 - Max Clifford: The Fall of a Tabloid King (2021)