Io e lei / Me Myself and Her (2015)

Posted By: Without
Io e lei / Me Myself and Her (2015)

Io e lei / Me Myself and Her (2015)
BDRip | MKV | 720x302 | AVC@498 Kbps | Italian AAC@128 Kbps | Subs: English, French, Italian | 2 channels | 1h 42mn | 458 MB
BDRip 1080p | MKV | 1920x808 | AVC@9227 Kbps | Italian DTS@1509 Kbps | Subs: English | 6 channels | 1h 42mn | 7.65 GB
Genre: Comedy

Marina, a former renowned actress, and Federica, an architect, have been living together in Rome for 5 years. Federica is not comfortable with being openly gay. Then Federica meets Marco an old flame.



General
Unique ID : 214055904148054506945758727641027567862 (0xA109AAE506B3E795B77E781A0B1BE0F6)
Complete name : Me.Myself.and.Her.2015.BDRip.x264-BiPOLAR[rarbg]\me.myself.and.her.2015.bdrip.x264-bipolar.mkv
Format : Matroska
Format version : Version 4 / Version 2
File size : 459 MiB
Duration : 1h 42mn
Overall bit rate : 628 Kbps
Encoded date : UTC 2016-03-09 16:50:05
Writing application : mkvmerge v8.3.0 ('Over the Horizon') 64bit
Writing library : libebml v1.3.1 + libmatroska v1.4.2

Video
ID : 1
Format : AVC
Format/Info : Advanced Video Codec
Format profile : High@L3.1
Format settings, CABAC : Yes
Format settings, ReFrames : 5 frames
Codec ID : V_MPEG4/ISO/AVC
Duration : 1h 42mn
Bit rate : 498 Kbps
Width : 720 pixels
Height : 302 pixels
Display aspect ratio : 2.40:1
Frame rate mode : Constant
Frame rate : 24.000 fps
Color space : YUV
Chroma subsampling : 4:2:0
Bit depth : 8 bits
Scan type : Progressive
Bits/(Pixel*Frame) : 0.096
Stream size : 364 MiB (79%)
Writing library : x264 core 148 r2665 a01e339
Encoding settings : cabac=1 / ref=5 / deblock=1:-2:-2 / analyse=0x3:0x113 / me=umh / subme=8 / psy=1 / psy_rd=0.80:0.00 / mixed_ref=1 / me_range=16 / chroma_me=1 / trellis=1 / 8x8dct=1 / cqm=0 / deadzone=21,11 / fast_pskip=1 / chroma_qp_offset=-2 / threads=9 / lookahead_threads=1 / sliced_threads=0 / nr=0 / decimate=1 / interlaced=0 / bluray_compat=0 / constrained_intra=0 / bframes=3 / b_pyramid=2 / b_adapt=2 / b_bias=0 / direct=3 / weightb=1 / open_gop=0 / weightp=2 / keyint=250 / keyint_min=23 / scenecut=40 / intra_refresh=0 / rc_lookahead=50 / rc=crf / mbtree=1 / crf=19.0 / qcomp=0.60 / qpmin=0 / qpmax=69 / qpstep=4 / ip_ratio=1.40 / aq=1:1.00
Language : English
Default : Yes
Forced : No
Color range : Limited
Matrix coefficients : BT.709

Audio
ID : 2
Format : AAC
Format/Info : Advanced Audio Codec
Format profile : LC
Codec ID : A_AAC
Duration : 1h 42mn
Bit rate : 128 Kbps
Channel(s) : 2 channels
Channel positions : Front: L R
Sampling rate : 48.0 KHz
Frame rate : 46.875 fps (1024 spf)
Compression mode : Lossy
Delay relative to video : 9ms
Stream size : 93.1 MiB (20%)
Language : Italian
Default : Yes
Forced : No

Text
ID : 3
Format : UTF-8
Codec ID : S_TEXT/UTF8
Codec ID/Info : UTF-8 Plain Text
Duration : 1h 37mn
Bit rate : 55 bps
Count of elements : 1084
Stream size : 39.4 KiB (0%)
Language : English
Default : Yes
Forced : Yes

Menu
00:00:00.000 : en:00:00:00.000
00:09:00.833 : en:00:09:00.833
00:16:58.417 : en:00:16:58.417
00:25:04.417 : en:00:25:04.417
00:34:11.208 : en:00:34:11.208
00:42:52.417 : en:00:42:52.417
00:51:35.417 : en:00:51:35.417
00:59:44.417 : en:00:59:44.417
01:08:25.208 : en:01:08:25.208
01:16:52.208 : en:01:16:52.208
01:24:43.625 : en:01:24:43.625
01:32:08.417 : en:01:32:08.417
00:00:00.625 : en:00:00:00.625

General
Unique ID : 174937859225984176982737734243168938341 (0x839BCE5FC870EA549D7C4EF95651E965)
Complete name : me.myself.and.her.2015.1080p.bluray.x264-usury.mkv
Format : Matroska
Format version : Version 4 / Version 2
File size : 7.65 GiB
Duration : 1h 42mn
Overall bit rate : 10.7 Mbps
Encoded date : UTC 2016-03-09 18:33:09
Writing application : mkvmerge v8.3.0 ('Over the Horizon') 64bit
Writing library : libebml v1.3.1 + libmatroska v1.4.2

Video
ID : 1
Format : AVC
Format/Info : Advanced Video Codec
Format profile : High@L4.1
Format settings, CABAC : Yes
Format settings, ReFrames : 5 frames
Codec ID : V_MPEG4/ISO/AVC
Duration : 1h 42mn
Bit rate : 9 227 Kbps
Width : 1 920 pixels
Height : 808 pixels
Display aspect ratio : 2.40:1
Frame rate mode : Constant
Frame rate : 24.000 fps
Color space : YUV
Chroma subsampling : 4:2:0
Bit depth : 8 bits
Scan type : Progressive
Bits/(Pixel*Frame) : 0.248
Stream size : 6.57 GiB (86%)
Writing library : x264 core 148 r2665 a01e339
Encoding settings : cabac=1 / ref=5 / deblock=1:0:0 / analyse=0x3:0x133 / me=umh / subme=7 / psy=1 / psy_rd=1.00:0.00 / mixed_ref=1 / me_range=16 / chroma_me=1 / trellis=1 / 8x8dct=1 / cqm=0 / deadzone=21,11 / fast_pskip=0 / chroma_qp_offset=-2 / threads=18 / lookahead_threads=3 / sliced_threads=0 / nr=0 / decimate=1 / interlaced=0 / bluray_compat=0 / constrained_intra=0 / bframes=3 / b_pyramid=2 / b_adapt=2 / b_bias=0 / direct=3 / weightb=1 / open_gop=0 / weightp=2 / keyint=250 / keyint_min=23 / scenecut=40 / intra_refresh=0 / rc_lookahead=50 / rc=2pass / mbtree=1 / bitrate=9227 / ratetol=1.0 / qcomp=0.60 / qpmin=0 / qpmax=69 / qpstep=4 / cplxblur=20.0 / qblur=0.5 / ip_ratio=1.40 / aq=1:1.00
Language : English
Default : Yes
Forced : No

Audio
ID : 2
Format : DTS
Format/Info : Digital Theater Systems
Mode : 16
Format settings, Endianness : Big
Codec ID : A_DTS
Duration : 1h 42mn
Bit rate mode : Constant
Bit rate : 1 509 Kbps
Channel(s) : 6 channels
Channel positions : Front: L C R, Side: L R, LFE
Sampling rate : 48.0 KHz
Frame rate : 93.750 fps (512 spf)
Bit depth : 24 bits
Compression mode : Lossy
Stream size : 1.08 GiB (14%)
Language : Italian
Default : Yes
Forced : No

Text
ID : 3
Format : UTF-8
Codec ID : S_TEXT/UTF8
Codec ID/Info : UTF-8 Plain Text
Duration : 1h 37mn
Bit rate : 55 bps
Count of elements : 1084
Stream size : 39.4 KiB (0%)
Language : English
Default : Yes
Forced : Yes

Menu
00:00:00.000 : en:00:00:00.000
00:09:00.833 : en:00:09:00.833
00:16:58.417 : en:00:16:58.417
00:25:04.417 : en:00:25:04.417
00:34:11.208 : en:00:34:11.208
00:42:52.417 : en:00:42:52.417
00:51:35.417 : en:00:51:35.417
00:59:44.417 : en:00:59:44.417
01:08:25.208 : en:01:08:25.208
01:16:52.208 : en:01:16:52.208
01:24:43.625 : en:01:24:43.625
01:32:08.417 : en:01:32:08.417
00:00:00.625 : en:00:00:00.625


BDRip Screenshots

Io e lei / Me Myself and Her (2015)

Io e lei / Me Myself and Her (2015)

Io e lei / Me Myself and Her (2015)


BDRip 1080p Screenshots

Io e lei / Me Myself and Her (2015)

Io e lei / Me Myself and Her (2015)

Io e lei / Me Myself and Her (2015)


Come Visit My Blog (•‿•)